Пока мы молоды / While we\'re young (Ноа Баумбак / Noah Baumbach) [2015, США, драма, комедия, DVDScreener] VO (А. Глинский) + Original Eng

 
Автор Сообщение

TorrentFilm ®

Пол:

Стаж: 2 года

Сообщений: 7741



Награды: Нет

Торрент-статистика

Создавать темы 02-Янв-2016 00:17

[Цитировать]

Пока мы молоды / While we're young
Страна: США
Жанр: драма, комедия
Год выпуска: 2015
Продолжительность: 01:37:02
Перевод: Одноголосый закадровый А.Глинский
Cубтитры: нет
Оригинальная аудиодорожка: английский
Режиссер: Ноа Баумбак / Noah Baumbach
В ролях: Бен Стиллер, Наоми Уоттс, Адам Хоровиц, Аманда Зайфрид, Адам Драйвер, Чарльз Гродин.
Описание: Бездетная пара кинематографистов (Джош и жена) знакомится с молодыми хипстерами (Джеми и жена) и их жизнь наполняется новыми красками.
Джош видит в Джеми молодого себя и старается помочь амбициозному документалисту с проектом. Джеми кажется чувствительным милашкой, но чем дальше, тем больше Джош сомневается в его бескорыстности; как и в реальности его документалистики. Кто же на самом деле этот Джеми - везучий шалопай, или злой гений?
Ненавязчивая притча о страхе старения, модном веянии документалистики, и о том, что каждому овощу свой фрукт.
Внимание! В фильме присутствуют песни из 80-х и, прости Господи, хип-хоп. Лексика местами ненормативна.
Сэмпл: http://sendfile.su/1130100
Качество видео: DVDScreener
Формат видео: AVI
Видео: XviD, MPEG-4, 720x392, 1.85:1, 23.976 fps, 1 597 Kbps
Аудио: MP3, 44.1kHz, 112 kbps, 2 channels, перевод
Аудио 2: AC3, 48 kHz, 448 kbps, Front: L C R, Side: L R, LFE, english

MediaInfo

Complete name : C:\Users\Documents\While we're young.avi
Format : AVI
Format/Info : Audio Video Interleave
File size : 1.47 GiB
Duration : 1h 37mn
Overall bit rate : 2 170 Kbps
Movie name : RARBG.COM - While.Were.Young.2014.LIMITED.BRRip.XviD.AC3-RARBG
Writing application : VirtualDubMod 1.5.10.3 | www.virtualdub-fr.org || (build 2550/release)
Writing library : VirtualDubMod build 2550/release
Comment : RARBG.COM - While.Were.Young.2014.LIMITED.BRRip.XviD.AC3-RARBG
Video
ID : 0
Format : MPEG-4 Visual
Format profile : Simple@L5
Format settings, BVOP : No
Format settings, QPel : No
Format settings, GMC : No warppoints
Format settings, Matrix : Default (H.263)
Codec ID : XVID
Codec ID/Hint : XviD
Duration : 1h 37mn
Bit rate : 1 597 Kbps
Width : 720 pixels
Height : 392 pixels
Display aspect ratio : 1.85:1
Frame rate : 23.976 fps
Color space : YUV
Chroma subsampling : 4:2:0
Bit depth : 8 bits
Scan type : Progressive
Compression mode : Lossy
Bits/(Pixel*Frame) : 0.236
Stream size : 1.08 GiB (74%)
Writing library : Lavc56.19.100
Audio #1
ID : 1
Format : MPEG Audio
Format version : Version 1
Format profile : Layer 3
Mode : Joint stereo
Mode extension : MS Stereo
Codec ID : 55
Codec ID/Hint : MP3
Duration : 1h 37mn
Bit rate mode : Constant
Bit rate : 112 Kbps
Channel(s) : 2 channels
Sampling rate : 44.1 KHz
Compression mode : Lossy
Stream size : 77.7 MiB (5%)
Alignment : Split accross interleaves
Interleave, duration : 42 ms (1.00 video frame)
Interleave, preload duration : 500 ms
Writing library : LAME3.98.4
Audio #2
ID : 2
Format : AC-3
Format/Info : Audio Coding 3
Mode extension : CM (complete main)
Format settings, Endianness : Big
Codec ID : 2000
Duration : 1h 37mn
Bit rate mode : Constant
Bit rate : 448 Kbps
Channel(s) : 6 channels
Channel positions : Front: L C R, Side: L R, LFE
Sampling rate : 48.0 KHz
Bit depth : 16 bits
Compression mode : Lossy
Stream size : 311 MiB (21%)
Alignment : Aligned on interleaves
Interleave, duration : 42 ms (1.00 video frame)
Interleave, preload duration : 512 ms

Скриншот c названием фильма

Скриншоты






[Профиль] [ЛС]
Кто просматривает тему:

Показать сообщения:    

Текущее время: Сегодня 14:26

Часовой пояс: GMT



Вы не можете начинать темы
Вы не можете отвечать на сообщения
Вы не можете редактировать свои сообщения
Вы не можете удалять свои сообщения
Вы не можете голосовать в опросах
Вы не можете прикреплять файлы к сообщениям
Вы не можете скачивать файлы