Поздняя любовь (Сергей Алёшечкин) [2012, Россия, мелодрама, HDTV 1080i]

 
Автор Сообщение

TorrentFilm ®

Пол:

Стаж: 2 года

Сообщений: 7741



Награды: Нет

Торрент-статистика

Создавать темы 02-Янв-2016 00:02

[Цитировать]

Поздняя любовь
Жанр: мелодрама
Год выпуска: 2012
Продолжительность: 01:31:37
Режиссёр: Сергей Алёшечкин
В ролях: Евгения Дмитриева, Андрей Егоров, Алёна Константинова, Наталья Гудкова, Николай Токарев, Юлия Агафонова, Максим Глотов, Елена Лотова, Наталья Барило, Ольга Долинина, Дмитрий Сотириади, Евгений Фарапонов, Дарья Егорова, Наталья Карпунина, Татьяна Морозова, Алена Криг, Олег Купчик, Анжелика Кошевая, Антон Батырев, Михаил Чубаев
Описание: Работница швейной мастерской Лида и ее муж Антон – образцово-показательная семья. Они вместе уже двадцать лет, растят взрослую дочь Соню и ведут размеренную, спокойную, «правильную» жизнь. Но весь этот налаженный мир в одночасье рушится, когда Антон во время командировки в Москву встречает свою институтскую подругу Таню - столичную красавицу и бизнес-леди. Увидев ожившие картинки глянцевого счастья, Антон с горечью понимает, что его единственная жизнь проходит мимо, и если он не изменит ее сейчас, то не изменит никогда...
Доп. информация: Файл чистый. Без посторонних надписей. Выкладывается, как есть.
Релиз -
Семпл: http://multi-up.com/826371
Качество видео: HDTV 1080i
Формат видео: MPEG-TS
Видео: AVC, 1920x1080 (16:9), 25 fps, 7836 Kbps, 0.151 bit/pixel
Аудио: MPEG Audio, 48.0 KHz, stereo, 192 Kbps

MI

ID : 1 (0x1)
Complete name : Поздняя любовь (2012, Россия, Мелодрама, HDTV) (MYDIMKA).ts
Format : MPEG-TS
File size : 5.42 GiB
Duration : 1h 31mn
Overall bit rate mode : Variable
Overall bit rate : 8 461 Kbps
Video
ID : 2911 (0xB5F)
Menu ID : 1 (0x1)
Format : AVC
Format/Info : Advanced Video Codec
Format profile : High@L4.0
Format settings, CABAC : Yes
Format settings, ReFrames : 4 frames
Codec ID : 27
Duration : 1h 31mn
Bit rate : 7 849 Kbps
Width : 1 920 pixels
Height : 1 080 pixels
Display aspect ratio : 16:9
Frame rate : 25.000 fps
Color space : YUV
Chroma subsampling : 4:2:0
Bit depth : 8 bits
Scan type : MBAFF
Bits/(Pixel*Frame) : 0.151
Stream size : 5.02 GiB (93%)
Audio
ID : 2912 (0xB60)
Menu ID : 1 (0x1)
Format : MPEG Audio
Format version : Version 1
Format profile : Layer 2
Codec ID : 3
Duration : 1h 31mn
Bit rate mode : Constant
Bit rate : 192 Kbps
Channel(s) : 2 channels
Sampling rate : 48.0 KHz
Compression mode : Lossy
Stream size : 126 MiB (2%)
Language : Russian

Скриншот с названием фильма

Скриншоты

[Профиль] [ЛС]
Кто просматривает тему:

Форум Тема Автор Размер
Фильмы 2015 года Cлишком поздно / Too Late (2015) WEB-DLRip | L Russian Mafia 1.37 GB
Отечественные мультфильмы В лесной чаще (Александр Иванов, Лев Позднеев) [1954 г., мультфильм, DVB-AVC] TorrentFilm 425 MB
Отечественные мультфильмы Лесная история (Лев Позднеев) [1956, СССР, Рисованный мультфильм, WEBRip] TorrentFilm 121 MB
Отечественные мультфильмы Мультипликационный крокодил №1 (В. Пекарь, В. Попов, Л. Позднеев) [1960, СССР, Союзмультфильм, Мультфильм, DVB] TorrentFilm 237 MB
Фильмы 2010 года Нежданная любовь / Поздняя любовь / Жиде. Кешіккен махаббат (Сабит Курманбеков) [2010, Казахстан, Франция, лирическая комедия, DVB-AVC] Dub TorrentFilm 1.21 GB
Фильмы 2014 года Поздние фазы / Late Phases (2014) HDRip | L1 достали все 1.45 GB
Отечественные cериалы Поздние цветы [01-04 из 04] (2014) SATRip от РиперАМ Белочка 2.05 GB
Фильмы (HD Rips | 720p, 1080p) Робокоп / RoboCop (Пол Верховен / Paul Verhoeven) [1987, США, фантастика, боевик, криминал, BDRip 1080p] [Director's Cut] 3x MVO (Blu-ray CEE, Superbit, Киномания) + AVO (Живов) + VO (Поздняков)... Russian Mafia 16.58 GB
Показать сообщения:    

Текущее время: Сегодня 06:10

Часовой пояс: GMT



Вы не можете начинать темы
Вы не можете отвечать на сообщения
Вы не можете редактировать свои сообщения
Вы не можете удалять свои сообщения
Вы не можете голосовать в опросах
Вы не можете прикреплять файлы к сообщениям
Вы не можете скачивать файлы