Пожизненно / Гнев Каина / The Wrath of Cain (Райан Комбс / Ryan Combs) [2010, США, боевик, драма, BDRip] MVO

 
Автор Сообщение

TorrentFilm ®

Пол:

Стаж: 1 год 11 месяцев

Сообщений: 7741



Награды: Нет

Торрент-статистика

Создавать темы 30-Мар-2015 00:02

[Цитировать]

Пожизненно / Гнев Каина / The Wrath of Cain- Год выпуска: 2010
Страна: США
Жанр: боевик, драма
Продолжительность: 01:23:53
Перевод: Профессиональный (многоголосый, закадровый) R5
Cубтитры: нет-Режиссер: Райан Комбс / Ryan Combs
В ролях: Винг Реймз, Нипси Хассл, Гилли Да Кид, Роберт Патрик, Роберт ЛаСардо, Эрик Нэйтан, Кертис Обри, Жанетт Бренч, Кертис Обри, Фабиан Каррильо
О фильме: Бывший вор в законе Майлз «Каин» Скиннер находится в тюрьме. Его боятся и уважают все заключенные. Однако когда Каин узнает, что болен раком мозга, он понимает, что нужно непременно что-то предпринимать. Его единственное желание — спасти и примирить двух своих враждующих сыновей. И единственный кто может ему помочь это начальник тюрьмы…-Релиз:
Автор: sociolog_melvas
Качество: BDRip (источник: xamster88 / BD-Remux / 1080p)
Формат: AVI
Видео: 704x400 (1.76:1), 23,976 fps, XviD build 65 ~2085 kbps avg, 0.31 bit/pixel
Аудио: 48 kHz, AC3 Dolby Digital, 3/2 (L,C,R,l,r) + LFE ch, ~384.00 kbps avg
Размер: 1487.54 Mb (1/3 DVD-R)
Скачать: Семпл-

Кадры из фильма


-

Mi

Формат : AVI
Формат/Информация : Audio Video Interleave
Размер файла : 1,45 Гбайт
Продолжительность : 1 ч. 23 м.
Общий поток : 2479 Кбит/сек
Название фильма : Пожизненно / Гнев Каина / The Wrath of Cain (2010) BDRip
Режиссёр : sociolog_melvas
Жанр : боевик, драма
Программа кодирования : VirtualDubMod 1.5.10.2 (build 2540/release)
Примечание : 24.03.2015
Видео
Идентификатор : 0
Формат : MPEG-4 Visual
Профиль формата : Advanced Simple@L5
Параметр BVOP формата : 1
Параметр QPel формата : Нет
Параметр GMC формата : Без точки перехода
Параметр матрицы формата : Выборочная
Идентификатор кодека : XVID
Идентификатор кодека/Подсказка : XviD
Продолжительность : 1 ч. 23 м.
Битрейт : 2086 Кбит/сек
Ширина : 704 пикселя
Высота : 400 пикселей
Соотношение сторон : 16:9
Частота кадров : 23,976 кадра/сек
Цветовое пространство : YUV
Субдискретизация насыщенности : 4:2:0
Битовая глубина : 8 бит
Тип развёртки : Прогрессивная
Метод сжатия : С потерями
Бит/(Пиксели*Кадры) : 0.309
Размер потока : 1,22 Гбайт (84%)
Библиотека кодирования : XviD 65
Аудио
Идентификатор : 1
Формат : AC-3
Формат/Информация : Audio Coding 3
Расширение режима : CM (complete main)
Параметр Endianness формата : Big
Идентификатор кодека : 2000
Продолжительность : 1 ч. 23 м.
Вид битрейта : Постоянный
Битрейт : 384 Кбит/сек
Каналы : 6 каналов
Расположение каналов : Front: L C R, Side: L R, LFE
Частота : 48,0 КГц
Битовая глубина : 16 бит
Метод сжатия : С потерями
Размер потока : 230 Мбайт (15%)
Выравнивание : Разделение по промежуткам
Продолжительность промежутка : 42 мс. (1,00 видеокадр)
Время предзагрузки промежутка : 500 мс.
-
[Профиль] [ЛС]

Создавать темы 06-Авг-2015 22:40 (спустя 4 месяца 7 дней)

Топик был перенесен из форума Фильмы до 2014 года в форум Фильмы до 2012 года
sergej644
 

Создавать темы 12-Июн-2016 07:54 (спустя 1 год 2 месяца)

Топик был перенесен из форума Фильмы 2011 года в форум Фильмы 2010 года
Russian Mafia
 
Кто просматривает тему:

Форум Тема Автор Размер
Фильмы (HD Rips | 720p, 1080p) Пожизненно / Life (1999) BDRip 1080p | P, A Russian Mafia 10.12 GB
Показать сообщения:    

Текущее время: Сегодня 18:21

Часовой пояс: GMT



Вы не можете начинать темы
Вы не можете отвечать на сообщения
Вы не можете редактировать свои сообщения
Вы не можете удалять свои сообщения
Вы не можете голосовать в опросах
Вы не можете прикреплять файлы к сообщениям
Вы не можете скачивать файлы