Поезд на Юму / 3:10 to Yuma (2007) BDRip 720p | D, P2, P, A

 
Автор Сообщение

Russian Mafia ®

Пол:

Стаж: 1 год 8 месяцев

Сообщений: 4256



Награды: 10 (Подробнее)

Top Releaser 4 (Количество: 1) Mega Seeder 4 (Количество: 1) За внесенный вклад в развитие сайта (Количество: 1)
Торрент-статистика

Создавать темы 06-Май-2016 18:43

[Цитировать]

Информация о фильме
Название: Поезд на Юму / В 3:10 на Юму
Оригинальное название: 3:10 to Yuma
Год выхода: 2007
Жанр: драма, криминал, приключения, вестерн
Режиссер: Джеймс Мэнголд
В ролях:
Кристиан Бэйл — Дэн Эванс, Рассел Кроу — Бен Уэйд, Логан Лерман — Уильям Эванс, Даллас Робертс — Грэйсон Баттерфилд, Питер Фонда — Байрон Макэлрой, Алан Тьюдик — Док Поттер, Кевин Дюранд — Такер, Бен Фостер — Чарли Принц, Гретхен Мол — Элис Эванс, Винесса Шоу — Эмми Нельсон.
О фильме:
После ареста известного бандита Бена Уэйда его банда продолжает угрожать местным жителям. Ветеран Гражданской войны и владелец небольшого ранчо Дэн Эванс соглашается тайно доставить Уэйда в ближайший город с железнодорожной станцией, чтобы того доставили на поезде в форт Юма. Как только они останавливаются в гостинице, становится очевидным, что тайна раскрыта, и за обоими начинается охота…

Страна: США
Студия: Lionsgate, Millennium Films, Relativity Media
Продолжительность: 02:02:31
Перевод: Дублированный, Профессиональный двухголосый, Профессиональный многоголосый, Авторский одноголосый, Оригинал
Файл
Кодек: x264
Качество: BDRip 720p
Видео: 1280x534 (2,40:1), 23.976 fps, 4015 kbps (HANSMER)
Звук:
Аудио #1: AC3, 384 Kbps, 48.0 KHz, 6 ch (Rus) Дублированный, Студия "Пифагор"
Аудио #2: AC3, 384 Kbps, 48.0 KHz, 6 ch (Rus) Профессиональный двухголосый, П.Гланц и И.Королёва
Аудио #3: AC3, 192 Kbps, 48.0 KHz, 2 ch (Ukr) Профессиональный многоголосый, Студия "Мова"
Аудио #4: AC3, 384 Kbps, 48.0 KHz, 6 ch (Rus) Авторский одноголосый, A.Гаврилов
Аудио #5: AC3, 384 Kbps, 48.0 KHz, 6 ch (Rus) Авторский одноголосый, Ю.Живов
Аудио #6: AC3, 384 Kbps, 48.0 KHz, 6 ch (Rus) Авторский одноголосый, Ю.Немахов
Аудио #7: AC3, 448 Kbps, 48.0 KHz, 6 ch (Rus) Авторский одноголосый, М.Яроцкий
Аудио #8: AC3, 384 Kbps, 48.0 KHz, 6 ch (Eng) Оригинал
Субтитры: Русские (форс., полные), Английские

Скриншоты


MediaInfo

Формат : Matroska
Версия формата : Version 2
Размер файла : 5,96 Гбайт
Продолжительность : 2 ч. 2 м.
Общий поток : 6961 Кбит/сек
Дата кодирования : UTC 2016-04-24 18:57:02
Программа кодирования : mkvmerge v5.4.0 ('Piper') built on Mar 10 2012 13:34:39
Библиотека кодирования : libebml v1.2.3 + libmatroska v1.3.0
Видео
Идентификатор : 1
Формат : AVC
Формат/Информация : Advanced Video Codec
Профиль формата : High@L4.1
Параметр CABAC формата : Да
Параметр ReFrames формата : 11 кадров
Идентификатор кодека : V_MPEG4/ISO/AVC
Продолжительность : 2 ч. 2 м.
Битрейт : 4015 Кбит/сек
Ширина : 1280 пикселей
Высота : 534 пикселя
Соотношение сторон : 2,40:1
Режим частоты кадров : Постоянный
Частота кадров : 23,976 кадра/сек
Цветовое пространство : YUV
Субдискретизация насыщенности : 4:2:0
Битовая глубина : 8 бит
Тип развёртки : Прогрессивная
Бит/(Пиксели*Кадры) : 0.245
Размер потока : 3,32 Гбайт (56%)
Заголовок : 3:10 to Yuma / Поезд на Юму / В 3:10 на Юму (2007)
Библиотека кодирования : x264 core 113 r1884 7313bb5
Настройки программы : cabac=1 / ref=11 / deblock=1:-3:-3 / analyse=0x3:0x113 / me=esa / subme=10 / psy=1 / psy_rd=1.00:0.00 / mixed_ref=1 / me_range=32 / chroma_me=1 / trellis=2 / 8x8dct=1 / cqm=0 / deadzone=21,11 / fast_pskip=0 / chroma_qp_offset=-2 / threads=12 / sliced_threads=0 / nr=0 / decimate=1 / interlaced=0 / constrained_intra=0 / bframes=10 / b_pyramid=2 / b_adapt=2 / b_bias=0 / direct=3 / weightb=1 / open_gop=0 / weightp=2 / keyint=250 / keyint_min=23 / scenecut=40 / intra_refresh=0 / rc_lookahead=60 / rc=2pass / mbtree=0 / bitrate=4015 / ratetol=1.0 / qcomp=0.70 / qpmin=10 / qpmax=69 / qpstep=4 / cplxblur=20.0 / qblur=0.5 / vbv_maxrate=50000 / vbv_bufsize=62500 / nal_hrd=none / ip_ratio=1.40 / pb_ratio=1.30 / aq=1:1.00
Язык : English
Default : Да
Forced : Нет
Коэффициенты матрицы : BT.709
colour_range : Limited
Аудио #1
Идентификатор : 2
Формат : AC-3
Формат/Информация : Audio Coding 3
Расширение режима : CM (complete main)
Параметр Endianness формата : Big
Идентификатор кодека : A_AC3
Продолжительность : 2 ч. 2 м.
Вид битрейта : Постоянный
Битрейт : 384 Кбит/сек
Каналы : 6 каналов
Расположение каналов : Front: L C R, Side: L R, LFE
Частота : 48,0 КГц
Битовая глубина : 16 бит
Метод сжатия : С потерями
Размер потока : 336 Мбайт (6%)
Заголовок : DUB (Russian) Студия "Пифагор"
Язык : Russian
Default : Да
Forced : Нет
Аудио #2
Идентификатор : 3
Формат : AC-3
Формат/Информация : Audio Coding 3
Расширение режима : CM (complete main)
Параметр Endianness формата : Big
Идентификатор кодека : A_AC3
Продолжительность : 2 ч. 2 м.
Вид битрейта : Постоянный
Битрейт : 384 Кбит/сек
Каналы : 6 каналов
Расположение каналов : Front: L C R, Side: L R, LFE
Частота : 48,0 КГц
Битовая глубина : 16 бит
Метод сжатия : С потерями
Размер потока : 336 Мбайт (6%)
Заголовок : DVO (Russian) П.Гланц и И.Королёва
Язык : Russian
Default : Нет
Forced : Нет
Аудио #3
Идентификатор : 4
Формат : AC-3
Формат/Информация : Audio Coding 3
Расширение режима : CM (complete main)
Параметр Endianness формата : Big
Идентификатор кодека : A_AC3
Продолжительность : 2 ч. 2 м.
Вид битрейта : Постоянный
Битрейт : 192 Кбит/сек
Каналы : 2 канала
Расположение каналов : Front: L R
Частота : 48,0 КГц
Битовая глубина : 16 бит
Метод сжатия : С потерями
Размер потока : 168 Мбайт (3%)
Заголовок : MVO (Ukrainian) Студия "Мова"
Язык : Ukrainian
Default : Нет
Forced : Нет
Аудио #4
Идентификатор : 5
Формат : AC-3
Формат/Информация : Audio Coding 3
Расширение режима : CM (complete main)
Параметр Endianness формата : Big
Идентификатор кодека : A_AC3
Продолжительность : 2 ч. 2 м.
Вид битрейта : Постоянный
Битрейт : 384 Кбит/сек
Каналы : 6 каналов
Расположение каналов : Front: L C R, Side: L R, LFE
Частота : 48,0 КГц
Битовая глубина : 16 бит
Метод сжатия : С потерями
Размер потока : 336 Мбайт (6%)
Заголовок : AVO (А.Гаврилов)
Язык : Russian
Default : Нет
Forced : Нет
Аудио #5
Идентификатор : 6
Формат : AC-3
Формат/Информация : Audio Coding 3
Расширение режима : CM (complete main)
Параметр Endianness формата : Big
Идентификатор кодека : A_AC3
Продолжительность : 2 ч. 2 м.
Вид битрейта : Постоянный
Битрейт : 384 Кбит/сек
Каналы : 6 каналов
Расположение каналов : Front: L C R, Side: L R, LFE
Частота : 48,0 КГц
Битовая глубина : 16 бит
Метод сжатия : С потерями
Размер потока : 336 Мбайт (6%)
Заголовок : AVO (Ю.Живов)
Язык : Russian
Default : Нет
Forced : Нет
Аудио #6
Идентификатор : 7
Формат : AC-3
Формат/Информация : Audio Coding 3
Расширение режима : CM (complete main)
Параметр Endianness формата : Big
Идентификатор кодека : A_AC3
Продолжительность : 2 ч. 2 м.
Вид битрейта : Постоянный
Битрейт : 384 Кбит/сек
Каналы : 6 каналов
Расположение каналов : Front: L C R, Side: L R, LFE
Частота : 48,0 КГц
Битовая глубина : 16 бит
Метод сжатия : С потерями
Размер потока : 336 Мбайт (6%)
Заголовок : AVO (Ю.Немахов)
Язык : Russian
Default : Нет
Forced : Нет
Аудио #7
Идентификатор : 8
Формат : AC-3
Формат/Информация : Audio Coding 3
Расширение режима : CM (complete main)
Параметр Endianness формата : Big
Идентификатор кодека : A_AC3
Продолжительность : 2 ч. 2 м.
Вид битрейта : Постоянный
Битрейт : 448 Кбит/сек
Каналы : 6 каналов
Расположение каналов : Front: L C R, Side: L R, LFE
Частота : 48,0 КГц
Битовая глубина : 16 бит
Метод сжатия : С потерями
Размер потока : 393 Мбайт (6%)
Заголовок : AVO (М.Яроцкий)
Язык : Russian
Default : Нет
Forced : Нет
Аудио #8
Идентификатор : 9
Формат : AC-3
Формат/Информация : Audio Coding 3
Расширение режима : CM (complete main)
Параметр Endianness формата : Big
Идентификатор кодека : A_AC3
Продолжительность : 2 ч. 2 м.
Вид битрейта : Постоянный
Битрейт : 384 Кбит/сек
Каналы : 6 каналов
Расположение каналов : Front: L C R, Side: L R, LFE
Частота : 48,0 КГц
Битовая глубина : 16 бит
Метод сжатия : С потерями
Размер потока : 336 Мбайт (6%)
Заголовок : Original (English)
Язык : English
Default : Нет
Forced : Нет
Текст #1
Идентификатор : 10
Формат : UTF-8
Идентификатор кодека : S_TEXT/UTF8
Идентификатор кодека/Информация : UTF-8 Plain Text
Заголовок : Rus forced
Язык : Russian
Default : Да
Forced : Да
Текст #2
Идентификатор : 11
Формат : UTF-8
Идентификатор кодека : S_TEXT/UTF8
Идентификатор кодека/Информация : UTF-8 Plain Text
Заголовок : Rus
Язык : Russian
Default : Нет
Forced : Нет
Текст #3
Идентификатор : 12
Формат : UTF-8
Идентификатор кодека : S_TEXT/UTF8
Идентификатор кодека/Информация : UTF-8 Plain Text
Заголовок : Eng
Язык : English
Default : Нет
Forced : Нет
[Профиль] [ЛС]
Кто просматривает тему:

Форум Тема Автор Размер
Зарубежные сериалы Великое ограбление поезда / The Great Train Robbery [01-02 из 02] (2013) HDTV 1080i от MediaClub l Первый канал Белочка 9.99 GB
Зарубежные сериалы Великое ограбление поезда / The Great Train Robbery [01x01 из 2] (2013) BDRip 720р от MediaClub | Sony Turbo Белочка 4.15 GB
Зарубежные Великое ограбление поезда / The Great Train Robbery [01из 02] (2013) HDTV 1080i от MediaClub l Первый канал Белочка 5.48 GB
Зарубежные сериалы Великое ограбление поезда / The Great Train Robbery [S01] (2013) BDRip 720р от MediaClub | P | Sony TV, Первый канал Белочка 8.63 GB
Зарубежные сериалы Великое ограбление поезда / The Great Train Robbery [S01] (2013) BDRip 720р от MediaClub | Sony TV, Первый канал Белочка 8.75 GB
Зарубежные сериалы Великое ограбление поезда / The Great Train Robbery [S01] (2013) HDRip от MediaClub | P | Sony TV, Первый канал Белочка 2.4 GB
Фильмы 2013 года Великое ограбление поезда / The Great Train Robbery [S01] (2013) HDRip от MediaClub | Sony TV sergej644 2.32 GB
Зарубежные сериалы Великое ограбление поезда / The Great Train Robbery [S01] (2013) HDRip от MediaClub | Sony TV, Первый канал Белочка 2.48 GB
Показать сообщения:    

Текущее время: Сегодня 20:34

Часовой пояс: GMT



Вы не можете начинать темы
Вы не можете отвечать на сообщения
Вы не можете редактировать свои сообщения
Вы не можете удалять свои сообщения
Вы не можете голосовать в опросах
Вы не можете прикреплять файлы к сообщениям
Вы не можете скачивать файлы