Поезд в Пусан / Busanhaeng (2016) WEBRip | L

 
Автор Сообщение

ODESSA ®

Пол:

Стаж: 1 год 7 месяцев

Сообщений: 399

Откуда: ODESSA



Награды: Нет

Торрент-статистика

Создавать темы 13-Сен-2016 12:27

[Цитировать]

Поезд в Пусан / Train to Busan / Busanhaeng
Страна: Южная Корея
Год выпуска: 2016
Жанр: ужасы, боевик, триллер
Продолжительность: 01:58:00
Режиссер: Ён Сан-хо
Авторы сценария: Ён Сан-хо, Пак Чу-сок
В ролях: Кон Ю, Ма Дон-сок, Чон Ю-ми, Ким Су-ан, Ким И-сон, Чхве У-щик, Ан Со-хи, Ким Чхан-хван, Чан Хёк-чин, Чон Сок-ён
Описание: Из-за загадочных вспышек вируса объявлено чрезвычайное положение. Скоростной поезд-экспресс в Пусан стал временным убежищем для тех, кто смог вырваться из охваченного загадочной эпидемией Сеула. Случайные пассажиры не предполагали, что их билет на этот поезд станет счастливым, но вот надолго ли — добро пожаловать на борт и постарайтесь остаться в живых...

Перевод: Любительский (многоголосый, закадровый) | «КОЛОБОК» & XDUB DORAMA
Субтитры: нет-Качество: WEBRip
Формат: AVI
Видео кодек: XviD
Аудио кодек: МР3
Видео: 720x384 (1.85:1), 23.976 fps, XviD ~747 kbps avg
Аудио: 48.0 kHz, MPEG Layer 3, 2 ch, ~128.00 kbps avg
Дата премьеры (мир): 13 мая 2016
Дата премьеры (РФ): 10 ноября 2016, «ПРОвзгляд»

Media Info

General
Полное имя : Поезд в Пусан (Ужасы, боевик, триллер 2016год).avi
Формат : AVI
Формат/Информация : Audio Video Interleave
Размер файла : 747 Мбайт
Продолжительность : 1 ч. 58 м.
Общий поток : 885 Кбит/сек
Программа кодирования : VirtualDubMod 1.5.10.3 | (build 2550/release)
Библиотека кодирования : VirtualDubMod build 2550/release
Видео
Идентификатор : 0
Формат : MPEG-4 Visual
Профиль формата : Advanced Simple@L5
Параметр BVOP формата : 2
Параметр QPel формата : Нет
Параметр GMC формата : Без точки перехода
Параметр матрицы формата : Выборочная
Идентификатор кодека : XVID
Идентификатор кодека/Подсказка : XviD
Продолжительность : 1 ч. 58 м.
Битрейт : 747 Кбит/сек
Ширина : 720 пикселей
Высота : 384 пикселя
Соотношение сторон : 1,85:1
Частота кадров : 23,976 (23976/1000) кадра/сек
Цветовое пространство : YUV
Субдискретизация насыщенности : 4:2:0
Битовая глубина : 8 бит
Тип развёртки : Прогрессивная
Метод сжатия : С потерями
Бит/(Пиксели*Кадры) : 0.113
Размер потока : 631 Мбайт (84%)
Библиотека кодирования : XviD 1.2.1 (UTC 2008-12-04)
Аудио
Идентификатор : 1
Формат : MPEG Audio
Версия формата : Version 1
Профиль формата : Layer 3
Идентификатор кодека : 55
Идентификатор кодека/Подсказка : MP3
Продолжительность : 1 ч. 58 м.
Вид битрейта : Постоянный
Битрейт : 128 Кбит/сек
Каналы : 2 канала
Частота : 48,0 КГц
Метод сжатия : С потерями
Размер потока : 108 Мбайт (14%)
Выравнивание : Соединение по промежуткам
Продолжительность промежутка : 42 мс. (1,00 видеокадр)
Время предзагрузки промежутка : 504 мс.
Библиотека кодирования : LAME3.99r
Настройки программы : -m s -V 4 -q 2 -lowpass 17 -b 128

Скриншоты

[Профиль] [ЛС]
Кто просматривает тему:

Форум Тема Автор Размер
Зарубежные сериалы Великое ограбление поезда / The Great Train Robbery [01-02 из 02] (2013) HDTV 1080i от MediaClub l Первый канал Белочка 9.99 GB
Зарубежные сериалы Великое ограбление поезда / The Great Train Robbery [01x01 из 2] (2013) BDRip 720р от MediaClub | Sony Turbo Белочка 4.15 GB
Зарубежные Великое ограбление поезда / The Great Train Robbery [01из 02] (2013) HDTV 1080i от MediaClub l Первый канал Белочка 5.48 GB
Зарубежные сериалы Великое ограбление поезда / The Great Train Robbery [S01] (2013) BDRip 720р от MediaClub | P | Sony TV, Первый канал Белочка 8.63 GB
Зарубежные сериалы Великое ограбление поезда / The Great Train Robbery [S01] (2013) BDRip 720р от MediaClub | Sony TV, Первый канал Белочка 8.75 GB
Зарубежные сериалы Великое ограбление поезда / The Great Train Robbery [S01] (2013) HDRip от MediaClub | P | Sony TV, Первый канал Белочка 2.4 GB
Фильмы 2013 года Великое ограбление поезда / The Great Train Robbery [S01] (2013) HDRip от MediaClub | Sony TV sergej644 2.32 GB
Зарубежные сериалы Великое ограбление поезда / The Great Train Robbery [S01] (2013) HDRip от MediaClub | Sony TV, Первый канал Белочка 2.48 GB
Показать сообщения:    

Текущее время: Сегодня 12:28

Часовой пояс: GMT



Вы не можете начинать темы
Вы не можете отвечать на сообщения
Вы не можете редактировать свои сообщения
Вы не можете удалять свои сообщения
Вы не можете голосовать в опросах
Вы не можете прикреплять файлы к сообщениям
Вы не можете скачивать файлы