Поездка / Ride (2014) ВDRip 1080р | P

 
Автор Сообщение

BOSS ®

Пол:

Стаж: 2 года 1 месяц

Сообщений: 3719

Откуда: ODESSA



Награды: 20 (Подробнее)

Mega Seeder 3 (Количество: 1) Top Keeper 3 (Количество: 1) Top Seeder 3 (Количество: 1)
Торрент-статистика

Создавать темы 15-Ноя-2015 08:37

[Цитировать]

Название: Поездка
Оригинальное название: Ride
Год выпуска: 2014
Жанр: Комедия
Выпущено: США, Sandbar Pictures
Режиссер: Хелен Хант
В ролях: Хелен Хант, Брентон Туэйтс, Люк Уилсон, Джули Дретзин, Джей Расселл, Джордан Лэйн Прайс, Уилли С. Карпентер, Ричард Кайнд, Джэй Хьюджули, Роберт Неппер
О фильме: Мать вынуждена предпринять путешествие через всю страну в Калифорнию, чтобы быть со своим сыном, который решил бросить школу и стать серфером.

Качество: ВDRip 1080р
Видео: MPEG-4 AVC, 8591 Кбит/с, 1920x808
Аудио: Русский (AC3, 2 ch, 192 Кбит/с), английский (DTS, 6 ch, 1510 Кбит/с)
Продолжительность: 01:32:59
Озвучивание: Профессиональное многоголосое [официальное]

Скриншоты

MediaInfo

General
Unique ID : 245302649668968346325608676661659256724 (0xB88B926455E9FCF4AD3C8C23B7794794)
Complete name : D:ВидеоPoezdka.2014.P.BDRip.1080p.mkv
Format : Matroska
Format version : Version 2
File size : 6.69 GiB
Duration : 1h 32mn
Overall bit rate : 10.3 Mbps
Encoded date : UTC 2015-11-15 03:02:03
Writing application : mkvmerge v8.3.0 ('Over the Horizon') 64bit
Writing library : libebml v1.3.1 + libmatroska v1.4.2
DURATION : 01:32:58.998000000
NUMBER_OF_FRAMES : 523031
NUMBER_OF_BYTES : 1052338372
_STATISTICS_WRITING_APP : mkvmerge v8.3.0 ('Over the Horizon') 64bit
_STATISTICS_WRITING_DATE_UTC : 2015-11-15 03:02:03
_STATISTICS_TAGS : BPS DURATION NUMBER_OF_FRAMES NUMBER_OF_BYTES
Video
ID : 1
Format : AVC
Format/Info : Advanced Video Codec
Format profile : High@L4.1
Format settings, CABAC : Yes
Format settings, ReFrames : 5 frames
Codec ID : V_MPEG4/ISO/AVC
Duration : 1h 32mn
Bit rate : 8 591 Kbps
Width : 1 920 pixels
Height : 808 pixels
Display aspect ratio : 2.40:1
Frame rate mode : Constant
Frame rate : 23.976 fps
Color space : YUV
Chroma subsampling : 4:2:0
Bit depth : 8 bits
Scan type : Progressive
Bits/(Pixel*Frame) : 0.231
Stream size : 5.45 GiB (81%)
Writing library : x264 core 148 r2638 7599210
Encoding settings : cabac=1 / ref=5 / deblock=1:0:0 / analyse=0x3:0x133 / me=umh / subme=7 / psy=1 / psy_rd=1.00:0.00 / mixed_ref=1 / me_range=16 / chroma_me=1 / trellis=1 / 8x8dct=1 / cqm=0 / deadzone=21,11 / fast_pskip=0 / chroma_qp_offset=-2 / threads=12 / lookahead_threads=2 / sliced_threads=0 / nr=0 / decimate=1 / interlaced=0 / bluray_compat=0 / constrained_intra=0 / bframes=3 / b_pyramid=2 / b_adapt=2 / b_bias=0 / direct=3 / weightb=1 / open_gop=0 / weightp=2 / keyint=250 / keyint_min=23 / scenecut=40 / intra_refresh=0 / rc_lookahead=50 / rc=2pass / mbtree=1 / bitrate=8591 / ratetol=1.0 / qcomp=0.60 / qpmin=0 / qpmax=69 / qpstep=4 / cplxblur=20.0 / qblur=0.5 / ip_ratio=1.40 / aq=1:1.00
Language : English
Default : Yes
Forced : No
DURATION : 01:32:59.032000000
NUMBER_OF_FRAMES : 133763
NUMBER_OF_BYTES : 5990222062
_STATISTICS_WRITING_APP : mkvmerge v8.3.0 ('Over the Horizon') 64bit
_STATISTICS_WRITING_DATE_UTC : 2015-11-15 03:02:03
_STATISTICS_TAGS : BPS DURATION NUMBER_OF_FRAMES NUMBER_OF_BYTES
Audio #1
ID : 2
Format : AC-3
Format/Info : Audio Coding 3
Mode extension : CM (complete main)
Format settings, Endianness : Big
Codec ID : A_AC3
Duration : 1h 32mn
Bit rate mode : Constant
Bit rate : 192 Kbps
Channel(s) : 2 channels
Channel positions : Front: L R
Sampling rate : 48.0 KHz
Bit depth : 16 bits
Compression mode : Lossy
Stream size : 128 MiB (2%)
Language : Russian
Default : Yes
Forced : Yes
Audio #2
ID : 3
Format : DTS
Format/Info : Digital Theater Systems
Mode : 16
Format settings, Endianness : Big
Codec ID : A_DTS
Duration : 1h 32mn
Bit rate mode : Constant
Bit rate : 1 509 Kbps
Channel(s) : 6 channels
Channel positions : Front: L C R, Side: L R, LFE
Sampling rate : 48.0 KHz
Bit depth : 24 bits
Compression mode : Lossy
Stream size : 1 004 MiB (15%)
Language : English
Default : No
Forced : No
Menu
00:00:00.000 : en:00:00:00.000
00:14:51.390 : en:00:14:51.390
00:31:20.420 : en:00:31:20.420
00:44:40.845 : en:00:44:40.845
01:00:07.687 : en:01:00:07.687
01:13:50.343 : en:01:13:50.343
01:27:29.119 : en:01:27:29.119
[Профиль] [ЛС]
Кто просматривает тему:

Форум Тема Автор Размер
Зарубежные сериалы Великое ограбление поезда / The Great Train Robbery [01-02 из 02] (2013) HDTV 1080i от MediaClub l Первый канал Белочка 9.99 GB
Зарубежные сериалы Великое ограбление поезда / The Great Train Robbery [01x01 из 2] (2013) BDRip 720р от MediaClub | Sony Turbo Белочка 4.15 GB
Зарубежные Великое ограбление поезда / The Great Train Robbery [01из 02] (2013) HDTV 1080i от MediaClub l Первый канал Белочка 5.48 GB
Зарубежные сериалы Великое ограбление поезда / The Great Train Robbery [S01] (2013) BDRip 720р от MediaClub | P | Sony TV, Первый канал Белочка 8.63 GB
Зарубежные сериалы Великое ограбление поезда / The Great Train Robbery [S01] (2013) BDRip 720р от MediaClub | Sony TV, Первый канал Белочка 8.75 GB
Зарубежные сериалы Великое ограбление поезда / The Great Train Robbery [S01] (2013) HDRip от MediaClub | P | Sony TV, Первый канал Белочка 2.4 GB
Фильмы 2013 года Великое ограбление поезда / The Great Train Robbery [S01] (2013) HDRip от MediaClub | Sony TV sergej644 2.32 GB
Зарубежные сериалы Великое ограбление поезда / The Great Train Robbery [S01] (2013) HDRip от MediaClub | Sony TV, Первый канал Белочка 2.48 GB
Показать сообщения:    

Текущее время: Сегодня 02:46

Часовой пояс: GMT



Вы не можете начинать темы
Вы не можете отвечать на сообщения
Вы не можете редактировать свои сообщения
Вы не можете удалять свои сообщения
Вы не можете голосовать в опросах
Вы не можете прикреплять файлы к сообщениям
Вы не можете скачивать файлы