Поездка к морю / Поедем на море / Pojedeme k moři / To See the Sea (Иржи Мадл / Jiří Mádl) [2014, Чехия, Драма, комедия, семейный, детский, DVDRip] VO + Sub Rus + Original Cze

 
Автор Сообщение

TorrentFilm ®

Пол:

Стаж: 2 года

Сообщений: 7741



Награды: Нет

Торрент-статистика

Создавать темы 22-Дек-2014 02:00

[Цитировать]

Поездка к морю / Поедем на море / Pojedeme k moři / To See the Sea
Страна: Чехия
Жанр: Драма, комедия, семейный, детский
Год выпуска: 2014
Продолжительность: 01:30:48
Перевод: Одноголосый закадровый
Cубтитры: русские
Оригинальная аудиодорожка: чешский
Режиссер: Иржи Мадл / Jiří Mádl
В ролях: Петр Шимчак / Petr Šimčák, Ян Маршал / Jan Maršál, Ондржей Ветхи / Ondřej Vetchý, Луцие Трмикова / Lucie Trmíková, Ярослава Покорна / Jaroslava Pokorná, Анастазие Хохолата / Anastásia Chocholatá, Michaela Majerníková, Ondřej Veselý, Zdeněk Bařinka, Miroslav Táborský, Lukáš Hrabák, Miloslav Šmídmajer
Описание: Одиннадцатилетний Томаш хочет стать кинорежиссером. Когда на день рождения ему дарят кинокамеру, он решает снять свой первый фильм – о своей семье и о своем друге. Начавшиеся как забава, съёмки вскоре открывают юному кинематографисту неприятную правду о собственном отце. Два раза в неделю тот вместо работы уезжает бог знает куда, но все отрицает. Мальчик и не подозревает, что случайно приблизился к семейной тайне, корни которой намного глубже, чем кажется на первый взгляд…
Сэмпл: http://multi-up.com/1018356
Качество видео: DVDRip
Формат видео: AVI
Видео: MPEG-4 Visual at 2000 Кбит/сек : 720 x 400 (1.800) at 25.000 fps
Аудио 1: AC-3 at 224 Кбит/сек : 2 канала, 48,0 КГц(Русский)
Аудио 2: AC-3 at 384 Кбит/сек : 6 каналов, 48,0 КГц(Чешский)
Формат субтитров: softsub (SRT)
Доп. информация о субтитрах: Русские внешние (kidkong)

MediaInfo

Общее
Полное имя : F:\С моей озвучкой\Поездка к морю\Pojedeme k moři.avi
Формат : AVI
Формат/Информация : Audio Video Interleave
Размер файла : 1,66 Гбайт
Продолжительность : 1 ч. 30 м.
Общий поток : 2622 Кбит/сек
Программа кодирования : VirtualDubModRus 1.5.10.2 (build 2542/release)
Библиотека кодирования : VirtualDubMod build 2542/release
Видео
Идентификатор : 0
Формат : MPEG-4 Visual
Профиль формата : Advanced Simple@L5
Параметр BVOP формата : 1
Параметр QPel формата : Нет
Параметр GMC формата : Без точки перехода
Параметр матрицы формата : Default (MPEG)
Идентификатор кодека : XVID
Идентификатор кодека/Подсказка : XviD
Продолжительность : 1 ч. 30 м.
Битрейт : 2000 Кбит/сек
Ширина : 720 пикселей
Высота : 400 пикселей
Соотношение сторон : 16:9
Частота кадров : 25,000 кадров/сек
Цветовое пространство : YUV
Субдискретизация насыщенности : 4:2:0
Битовая глубина : 8 бит
Тип развёртки : Прогрессивная
Метод сжатия : С потерями
Бит/(Пиксели*Кадры) : 0.278
Размер потока : 1,27 Гбайт (76%)
Библиотека кодирования : XviD 1.2.1 (UTC 2008-12-04)
Аудио #1
Идентификатор : 1
Формат : AC-3
Формат/Информация : Audio Coding 3
Расширение режима : CM (complete main)
Параметр Endianness формата : Big
Идентификатор кодека : 2000
Продолжительность : 1 ч. 30 м.
Вид битрейта : Постоянный
Битрейт : 224 Кбит/сек
Каналы : 2 канала
Расположение каналов : Front: L R
Частота : 48,0 КГц
Битовая глубина : 16 бит
Метод сжатия : С потерями
Размер потока : 145 Мбайт (9%)
Выравнивание : Разделение по промежуткам
Продолжительность промежутка : 40 мс. (1,00 видеокадр)
Время предзагрузки промежутка : 500 мс.
Аудио #2
Идентификатор : 2
Формат : AC-3
Формат/Информация : Audio Coding 3
Расширение режима : CM (complete main)
Параметр Endianness формата : Big
Идентификатор кодека : 2000
Продолжительность : 1 ч. 30 м.
Вид битрейта : Постоянный
Битрейт : 384 Кбит/сек
Каналы : 6 каналов
Расположение каналов : Front: L C R, Side: L R, LFE
Частота : 48,0 КГц
Битовая глубина : 16 бит
Метод сжатия : С потерями
Размер потока : 249 Мбайт (15%)
Выравнивание : Разделение по промежуткам
Продолжительность промежутка : 40 мс. (1,00 видеокадр)
Время предзагрузки промежутка : 500 мс.

Скриншот c названием фильма

Скриншоты

[Профиль] [ЛС]
Кто просматривает тему:

Форум Тема Автор Размер
Зарубежные сериалы Великое ограбление поезда / The Great Train Robbery [01-02 из 02] (2013) HDTV 1080i от MediaClub l Первый канал Белочка 9.99 GB
Зарубежные сериалы Великое ограбление поезда / The Great Train Robbery [01x01 из 2] (2013) BDRip 720р от MediaClub | Sony Turbo Белочка 4.15 GB
Зарубежные Великое ограбление поезда / The Great Train Robbery [01из 02] (2013) HDTV 1080i от MediaClub l Первый канал Белочка 5.48 GB
Зарубежные сериалы Великое ограбление поезда / The Great Train Robbery [S01] (2013) BDRip 720р от MediaClub | P | Sony TV, Первый канал Белочка 8.63 GB
Зарубежные сериалы Великое ограбление поезда / The Great Train Robbery [S01] (2013) BDRip 720р от MediaClub | Sony TV, Первый канал Белочка 8.75 GB
Зарубежные сериалы Великое ограбление поезда / The Great Train Robbery [S01] (2013) HDRip от MediaClub | P | Sony TV, Первый канал Белочка 2.4 GB
Фильмы 2013 года Великое ограбление поезда / The Great Train Robbery [S01] (2013) HDRip от MediaClub | Sony TV sergej644 2.32 GB
Зарубежные сериалы Великое ограбление поезда / The Great Train Robbery [S01] (2013) HDRip от MediaClub | Sony TV, Первый канал Белочка 2.48 GB
Показать сообщения:    

Текущее время: Сегодня 14:34

Часовой пояс: GMT



Вы не можете начинать темы
Вы не можете отвечать на сообщения
Вы не можете редактировать свои сообщения
Вы не можете удалять свои сообщения
Вы не можете голосовать в опросах
Вы не можете прикреплять файлы к сообщениям
Вы не можете скачивать файлы