Поезда Адама / Adem\'in trenleri (Барис Пирхасан / Baris Pirhasan) [2007, Турция, драма, DVDRip] Sub Rus

 
Автор Сообщение

TorrentFilm ®

Пол:

Стаж: 2 года

Сообщений: 7741



Награды: Нет

Торрент-статистика

Создавать темы 26-Июн-2015 00:06

[Цитировать]

Поезда Адама / Adem'in trenleri
Страна: Турция
Жанр: драма
Год выпуска: 2007
Продолжительность: 01:39:18-Перевод: Субтитры (lobo)
Cубтитры: русские
Оригинальная аудиодорожка: турецкий-Режиссер: Барис Пирхасан / Baris Pirhasan-В ролях: Нургюль Ешилчай, Джем Ёзер, Умит Сирак, Дерия Алабора, Асуман Дабак, Хакан Билгин, Фират Кан Айдин, Зейнеп Ёзбай, Атиф Эмир Бендерлиоглу, Мюнире Апайдин, Йилдиз Кюльтюр, Туран Оздемир, Изель Алкай, Гюнер Ёзкул, Вейсел Дикер-Описание:
В деревушку при железнодорожной станции где-то в глуши Анатолии прибывает ходжа Хасан. Жители пригласили его на время священного месяца рамадана для чтения молитв и обучения детей исламу. Но ходжа, нарушая условия договора, привозит с собою жену Хасер и маленькую дочь Фатьму, а это – лишние рты для деревушки. В результате отношения ходжи с некоторыми местными жителями изначально не заладились, а потом и вовсе стали напряженными из-за его отношения к жене и дочери. А у маленького Адама, сына начальника станции, от проповедей ходжи о неведомых ранее Адаму вещах - грехе, рае и аде - в голове создалась изрядная каша. «Кажется, мне остается только выбор между адом и адом». Но в итоге все принимает совершенно неожиданный оборот. Фильм – о том, что «общественное мнение» о ком-либо вовсе не обязательно всегда право, даже если оно единодушное.-Доп. информация:
Награды:
Приз Турецкой ассоциации кинокритиков 2007 – Дерия Алабора, лучшая роль второго плана
МКФ в Стамбуле 2007 – номинация на «Золотой тюльпан», как лучший фильм-Сэмпл: https://yadi.sk/i/1NOnLaqqgyufb-Качество видео: DVDRip
Формат видео: AVI
Видео: 720x416 (1.73:1), 25 fps, XviD MPEG-4 ~1518 kbps avg, 0.20 bit/pixel
Аудио: 44.100 kHz, MPEG Layer 3, 2 ch, ~192.00 kbps avg
Формат субтитров: softsub (SRT)

MediaInfo

Format : AVI
Format/Info : Audio Video Interleave
Format profile : OpenDML
File size : 1.19 GiB
Duration : 1h 39mn
Overall bit rate : 1 717 Kbps
Writing application : Lavf52.0.0
Video
ID : 0
Format : xvid
Codec ID : xvid
Duration : 1h 39mn
Bit rate : 1 510 Kbps
Width : 720 pixels
Height : 416 pixels
Display aspect ratio : 1.731
Frame rate : 25.000 fps
Bits/(Pixel*Frame) : 0.202
Stream size : 1.05 GiB (88%)
Audio
ID : 1
Format : MPEG Audio
Format version : Version 1
Format profile : Layer 3
Mode : Joint stereo
Mode extension : MS Stereo
Codec ID : 55
Codec ID/Hint : MP3
Duration : 1h 39mn
Bit rate mode : Constant
Bit rate : 192 Kbps
Channel(s) : 2 channels
Sampling rate : 44.1 KHz
Compression mode : Lossy
Stream size : 136 MiB (11%)
Alignment : Aligned on interleaves
Interleave, duration : 26 ms (0.65 video frame)
Writing library : LAME3.96.1

Скриншот c названием фильма

Скриншоты

Фрагмент субтитров

11
00:03:05,960 --> 00:03:13,469
"Свидетельствую, что Магомет
- пророк Его".
12
00:03:21,000 --> 00:03:22,479
Несип!
13
00:03:22,640 --> 00:03:25,700
Вставай! Мужское пение
зовет на молитву.
14
00:03:26,080 --> 00:03:28,753
- Адам, иди сюда.
- Дорогой Господь...
15
00:03:30,400 --> 00:03:34,755
Ты должна была поднять меня
для сахура, чтобы я мог поститься.
16
00:03:41,360 --> 00:03:42,793
Кто это?
17
00:03:44,840 --> 00:03:54,750
"Велик Господь!"
18
00:03:58,600 --> 00:04:05,039
"Нет Бога, кроме Аллаха!"
19
00:04:40,880 --> 00:04:43,440
- Салям алейкум.
- Алейкум салям.
20
00:04:43,680 --> 00:04:46,592
Что происходит?
Пение призвало на молитву?
21
00:04:46,720 --> 00:04:49,520
Ходжа, разве Хасан Тилки
не сказал вам?
22
00:04:49,520 --> 00:04:52,193
Он сказал. Вы сказали, чтобы
я не приезжал, из-за ребенка.
23
00:04:52,280 --> 00:04:55,192
- Тогда почему вы здесь?
- Вы нашли имама?
24
00:04:55,720 --> 00:04:57,520
Нет, но...
25
00:04:57,520 --> 00:05:00,120
Вы собирались давать
мне пищу и деньги...
26
00:05:00,120 --> 00:05:02,080
...Я собирался быть вашим имамом.
27
00:05:02,080 --> 00:05:04,480
Да, мы имели в виду это, но...
28
00:05:04,480 --> 00:05:07,916
Но тут ребенок и вы
не прокормите еще один рот.
29
00:05:08,720 --> 00:05:11,154
Хорошо, сейчас Рамадан.
[Профиль] [ЛС]

Создавать темы 06-Авг-2015 22:29 (спустя 1 месяц 10 дней)

Топик был перенесен из форума Фильмы до 2014 года в форум Фильмы до 2012 года
sergej644
 
Кто просматривает тему:

Форум Тема Автор Размер
Зарубежные сериалы Великое ограбление поезда / The Great Train Robbery [01-02 из 02] (2013) HDTV 1080i от MediaClub l Первый канал Белочка 9.99 GB
Зарубежные сериалы Великое ограбление поезда / The Great Train Robbery [01x01 из 2] (2013) BDRip 720р от MediaClub | Sony Turbo Белочка 4.15 GB
Зарубежные Великое ограбление поезда / The Great Train Robbery [01из 02] (2013) HDTV 1080i от MediaClub l Первый канал Белочка 5.48 GB
Зарубежные сериалы Великое ограбление поезда / The Great Train Robbery [S01] (2013) BDRip 720р от MediaClub | P | Sony TV, Первый канал Белочка 8.63 GB
Зарубежные сериалы Великое ограбление поезда / The Great Train Robbery [S01] (2013) BDRip 720р от MediaClub | Sony TV, Первый канал Белочка 8.75 GB
Зарубежные сериалы Великое ограбление поезда / The Great Train Robbery [S01] (2013) HDRip от MediaClub | P | Sony TV, Первый канал Белочка 2.4 GB
Фильмы 2013 года Великое ограбление поезда / The Great Train Robbery [S01] (2013) HDRip от MediaClub | Sony TV sergej644 2.32 GB
Зарубежные сериалы Великое ограбление поезда / The Great Train Robbery [S01] (2013) HDRip от MediaClub | Sony TV, Первый канал Белочка 2.48 GB
Показать сообщения:    

Текущее время: Сегодня 06:27

Часовой пояс: GMT



Вы не можете начинать темы
Вы не можете отвечать на сообщения
Вы не можете редактировать свои сообщения
Вы не можете удалять свои сообщения
Вы не можете голосовать в опросах
Вы не можете прикреплять файлы к сообщениям
Вы не можете скачивать файлы