Под псевдонимом: Джек Стронг / Джек Стронг / Jack Strong (Владислав Пасиковский / Wladyslaw Pasikowski) [2014, Польша, боевик, драма, криминал, детектив, биография, BDRip-AVC] VO + Original + Sub (rus, eng, pol)

 
Автор Сообщение

reversefile ®

Пол:

Стаж: 4 года 5 месяцев

Сообщений: 842

Откуда: ReverseFile.org



Награды: Нет

Торрент-статистика

Создавать темы 25-Июл-2014 01:16

[Цитировать]

Джек Стронг
Jack Strong


Страна: Польша
Студия: Scorpio Studio
Жанр: боевик, драма, криминал, детектив, биография
Год выпуска: 2014
Продолжительность: 02:07:44
Перевод: Одноголосый (закадровый) [Аndi]
Cубтитры: Russian (Naumanns/Арт-группа STOP!Genocide), English, Polish
Оригинальная аудиодорожка: Польский - русский - английский - немецкий (смесь польской, русской, английской и немецкой речи)
Режиссер:
Владислав Пасиковский / Wladyslaw Pasikowski
В ролях:
Марчин Дорочиньский, Майя Осташевска, Патрик Уилсон, Дмитрий Биллов, Дагмара Доминчик, Олег Масленников, Кшиштоф Печиньский, Мирослав Бака, Збигнев Замаховский, Кшиштоф Глёбиш
Описание:
1968 год. Майор Рышард Куклинский готовит план военных учений стран-участниц Организации Варшавского договора. Он прекрасно понимает, что Советский Союз рассматривает возможность массированной атаки на Западную Европу и страны НАТО, которые, не имея достаточного количества обычных вооружений, будут вынуждены контратаковать с помощью ядерных ударов по его родной Польше, через которую и будут проходить силы первого и второго броска. Самосожжение философа Рышарда Сивца в знак протеста против вторжения в Чехословакию, жестокое подавление армией забастовок в Гданьске в декабре 1970 года с помощью тяжелых пулеметов - все это склоняет уже полковника Рышарда Куклинского использовать хорошие связи в советских и польских военных кругах и доступ к совершенно секретным документам "в мирных целях", добровольно предложив сотрудничество с Центральным разведывательным управлением США. Под псевдонимом "Джек Стронг" и кодовым именем "Чайка" Куклинский передает на Запад совершенно секретные документы о советском наступательном вооружении, системах ПВО и ПРО и планах ввести на территории Польши военное положение. С тех пор его жизнь находится под угрозой, дети презирают его за службу "красным", жена подозревает в супружеской измене, а внимание военной контрразведки и советского КГБ может привести к неверному шагу и провалу

Релиз:
Автор рипа: Stalker oK
Сэмпл: multi-up
Качество видео: BDRip-AVC [BDRemux 1080p / ollan / ExKinoRay]
Формат видео: MKV
Видео кодек: AVC
Аудио кодек: AC3
Видео: 1254 Кбит/сек, 936*392 (2,35:1), в 24,000 кадр/сек, AVC
Аудио #1: Russian, 192 Кбит/сек, 48,0 КГц, 16 бит, 2 канала(ов), AC-3
Аудио #2: Polish, Russian, English, German, 192 Кбит/сек, 48,0 КГц, 16 бит, 2 канала(ов), AC-3

Доп. информация о фильме

Фильм основан на реальных событиях, а в ролях задействованы польские, украинские и американские актеры. Заместитель начальника оперативного управления польского Генштаба Рышард Куклинский был одним из самых ценных агентов ЦРУ в соцстранах во время "холодной войны", стоящий на одном уровне с Олегом Пеньковским и Олегом Гордиевским. Он передал на Запад более 40 000 страниц совершенно секретной документации, из которых 90% были на русском языке и касались советских военных планов в системе Организации Варшавского договора, технических данных танков "Т-72" и ПЗРК "Стрела-2" (советских "стингеров"), а также методов антиспутниковой маскировки и местах размещения ядерных бункеров для советского политического и военного руководства.
Бывший советник Президента США по национальной безопасности Збигнев Бжезинский (чей образ также выступает в фильме) назвал Куклинского "первым польским офицером в НАТО". Президент США Билл Клинтон поставил в 1997 году условием вступлением Польши в НАТО полную реабилитацию Рышарда Куклинского.
При этом общественное мнение в современной Польше раскололось: одни считают его героем и патриотом, не взявшим у ЦРУ ни цента, другие - предателем и подвергают его мемориальные объекты (памятники и доски) регулярному вандализму (последний случай произошел 11.02.2014 года - обливание краской и надписи: "Предатель" и "Смерть США")
В военных кругах, близких к ГРУ Генштаба СССР, популярно мнение о том, что Рышард Куклинский был "двойным агентом" и на самом деле "сливал на Запад дезу" по заданию "грушников" (в фильме подобная версия, разумеется, не раскрыта)

MediaInfo

Общее
Уникальный идентификатор : 202086193199505162718651388517943298823 (0x98086294CCEC2D17BDB7FB2F737F4B07)
Полное имя : E:\рипы\Джек Стронг\Jack.Strong.2014.BDRip-AVC.VO.1.45Gb...stalkerok.new-team.mkv
Формат : Matroska
Размер файла : 1,46 Гбайт
Продолжительность : 2 ч. 7 м.
Общий поток : 1640 Кбит/сек
Название фильма : Jack Strong 2014 (New-Team) (Rip by Stalker oK)
Дата кодирования : UTC 2014-07-19 14:58:29
Программа кодирования : mkvmerge v6.1.0 ('Old Devil') built on Mar 4 2013 09:10:42
Библиотека кодирования : libebml v1.3.0 + libmatroska v1.4.0
Видео
Идентификатор : 1
Формат : AVC
Формат/Информация : Advanced Video Codec
Профиль формата : High@L4.1
Параметр CABAC формата : Да
Параметр ReFrames формата : 11 кадры
Идентификатор кодека : V_MPEG4/ISO/AVC
Продолжительность : 2 ч. 7 м.
Битрейт : 1254 Кбит/сек
Ширина : 936 пикс.
Высота : 392 пикс.
Соотношение сторон : 2,35:1
Частота кадров : 24,000 кадр/сек
Цветовое пространство : YUV
Подвыборка цветности : 4:2:0
Битовая глубина : 8 бит
Тип развёртки : Прогрессивная
Бит/(Пиксели*Кадры) : 0.142
Размер потока : 1,09 Гбайт (75%)
Библиотека кодирования : x264 core 142 r2431 ac76440
Настройки программы : cabac=1 / ref=11 / deblock=1:-3:-2 / analyse=0x3:0x133 / me=umh / subme=11 / psy=1 / psy_rd=1.00:0.10 / mixed_ref=1 / me_range=48 / chroma_me=1 / trellis=2 / 8x8dct=1 / cqm=0 / deadzone=21,11 / fast_pskip=0 / chroma_qp_offset=-3 / threads=12 / lookahead_threads=3 / sliced_threads=0 / nr=0 / decimate=0 / interlaced=0 / bluray_compat=0 / constrained_intra=0 / bframes=14 / b_pyramid=2 / b_adapt=2 / b_bias=0 / direct=3 / weightb=1 / open_gop=0 / weightp=2 / keyint=240 / keyint_min=24 / scenecut=40 / intra_refresh=0 / rc_lookahead=80 / rc=2pass / mbtree=1 / bitrate=1254 / ratetol=1.0 / qcomp=0.70 / qpmin=0 / qpmax=69 / qpstep=4 / cplxblur=20.0 / qblur=0.5 / vbv_maxrate=30000 / vbv_bufsize=25000 / nal_hrd=none / filler=0 / ip_ratio=1.40 / aq=2:1.00
Аудио #1
Идентификатор : 2
Формат : AC-3
Формат/Информация : Audio Coding 3
Расширение режима : CM (complete main)
Идентификатор кодека : A_AC3
Продолжительность : 2 ч. 7 м.
Вид битрейта : Постоянный
Битрейт : 192 Кбит/сек
Канал(ы) : 2 канала(ов)
Расположение каналов : Front: L R
Частота : 48,0 КГц
Битовая глубина : 16 бит
Метод сжатия : С потерями
Размер потока : 175 Мбайт (12%)
Язык : Russian
Аудио #2
Идентификатор : 3
Формат : AC-3
Формат/Информация : Audio Coding 3
Расширение режима : CM (complete main)
Идентификатор кодека : A_AC3
Продолжительность : 2 ч. 7 м.
Вид битрейта : Постоянный
Битрейт : 192 Кбит/сек
Канал(ы) : 2 канала(ов)
Расположение каналов : Front: L R
Частота : 48,0 КГц
Битовая глубина : 16 бит
Метод сжатия : С потерями
Размер потока : 175 Мбайт (12%)
Заголовок : Польский, Русский, Английский, Немецкий
Текст #1
Идентификатор : 4
Формат : UTF-8
Идентификатор кодека : S_TEXT/UTF8
Идентификатор кодека/Информация : UTF-8 Plain Text
Язык : Russian
Текст #2
Идентификатор : 5
Формат : UTF-8
Идентификатор кодека : S_TEXT/UTF8
Идентификатор кодека/Информация : UTF-8 Plain Text
Язык : English
Текст #3
Идентификатор : 6
Формат : UTF-8
Идентификатор кодека : S_TEXT/UTF8
Идентификатор кодека/Информация : UTF-8 Plain Text
Язык : Polish
Меню
00:00:00.000 : en:00:00:00.000
00:05:37.708 : en:00:05:37.708
00:15:22.000 : en:00:15:22.000
00:23:44.917 : en:00:23:44.917
00:32:04.250 : en:00:32:04.250
00:41:12.083 : en:00:41:12.083
00:48:47.958 : en:00:48:47.958
00:57:43.083 : en:00:57:43.083
01:03:07.458 : en:01:03:07.458
01:10:29.958 : en:01:10:29.958
01:20:39.167 : en:01:20:39.167
01:27:39.250 : en:01:27:39.250
01:35:38.333 : en:01:35:38.333
01:44:30.000 : en:01:44:30.000
01:56:35.667 : en:01:56:35.667
02:00:26.292 : en:02:00:26.292

Скриншоты

[Профиль] [ЛС]
Кто просматривает тему:

Показать сообщения:    

Текущее время: Сегодня 20:04

Часовой пояс: GMT



Вы не можете начинать темы
Вы не можете отвечать на сообщения
Вы не можете редактировать свои сообщения
Вы не можете удалять свои сообщения
Вы не можете голосовать в опросах
Вы не можете прикреплять файлы к сообщениям
Вы не можете скачивать файлы