Под прицелом / Athadu (2005) WEB-DLRip 720p | P

 
Автор Сообщение

Russian Mafia ®

Пол:

Стаж: 1 год 8 месяцев

Сообщений: 4257



Награды: 10 (Подробнее)

За внесенный вклад в развитие сайта (Количество: 1) Mega Seeder 2 (Количество: 1) Top Releaser 4 (Количество: 1)
Торрент-статистика

Создавать темы 28-Авг-2016 06:05

[Цитировать]

Информация о фильме
Название: Под прицелом / Атаду: Особо опасен
Оригинальное название: Athadu / Athadu: Most Wanted
Год выхода: 2005
Жанр: Боевик, триллер, мелодрама
Режиссер: Тривикрам Шринивас
В ролях: Махеш Бабу, Триша Кришнан, Пракаш Радж, Сону Суд, Шриниваса Рао Кота, Нассер, Гирибабу, Брахманандам, Эджей,
Таникелла Бхарани, Рахул Дев, Ваджа Венката Гиридхар, Хема, М.С. Нарьяна, Чаран Радж, Саяджи Шинде, Судха, Сунил, Кашинадхури Вишванатх
О фильме:
Нанду — профессиональный убийца. Лучший и единственный друг Малли всегда помогал ему сбежать с места преступления. Партийный лидер Шива Редди для повышения интереса избирателей к своей кандидатуре принимает решение о том, чтобы на него совершили покушение, из которого он должен выйти живым. С этой целью он и нанимает Нанду. В день убийства за секунду до того, как Нанду должен был нажать на курок, Шиву Редди убивают по настоящему. Малли погибает в автокатастрофе, а полиция мгновенно окружает здание, откуда Нанду должен был стрелять. В безвыходном положении Нанду убегает, спрыгнув на крышу проходящего поезда. В этом поезде он знакомится с Парду, который возвращается домой после двенадцатилетнего отсутствия. Эта встреча изменила их жизни раз и навсегда.

Страна: Индия
Студия: Sri Jayabheri Art Productions
Продолжительность: 02:52:21
Перевод: Профессиональный (двухголосый закадровый) Red Media
Качество: WEB-DLRip 720p
Формат: MKV
Кодек: XviD
Видео: 1280x592 (2.16:1), 23.976 fps, XviD build 47 ~1869 kbps avg, 0.10 bit/pixel
Аудио 1: 48 kHz, AC3 Dolby Digital, 3/2 (L,C,R,l,r) + LFE ch, ~448.00 kbps avg - Двухголосый закадровый (Red Media)
Аудио 2: 48 kHz, AC3 Dolby Digital, 3/2 (L,C,R,l,r) + LFE ch, ~448.00 kbps avg - Оригинал
Аудио 3: 48 kHz, MPEG Layer 3, 2/0 (L,R) ch, 128.00 kbps avg - Двухголосый закадровый (Red Media)
Субтитры: UTF-8 Plain Text (rus / eng)

MediaInfo

Общее
Уникальный идентификатор : 250935778289772463343297623344076088179 (0xBCC879136C94BAC5AB6214D59AE0E373)
Полное имя : Athadu (Под прицелом) 2005Athadu (Под прицелом) 2005.mkv
Формат : Matroska
Версия формата : Version 4 / Version 2
Размер файла : 3,48 Гбайт
Продолжительность : 2 ч. 52 м.
Общий поток : 2892 Кбит/сек
Дата кодирования : UTC 2016-08-21 10:32:25
Программа кодирования : mkvmerge v9.2.0 ('Photograph') 64bit
Библиотека кодирования : libebml v1.3.3 + libmatroska v1.4.4
Видео
Идентификатор : 1
Формат : MPEG-4 Visual
Профиль формата : Advanced Simple@L5
Параметр BVOP формата : 2
Параметр QPel формата : Да
Параметр GMC формата : Без точки перехода
Параметр матрицы формата : Default (H.263)
Идентификатор кодека : V_MS/VFW/FOURCC / XVID
Идентификатор кодека/Подсказка : XviD
Продолжительность : 2 ч. 52 м.
Битрейт : 1865 Кбит/сек
Ширина : 1280 пикселей
Высота : 592 пикселя
Соотношение сторон : 2,2:1
Режим частоты кадров : Постоянный
Частота кадров : 23,976 (24000/1001) кадра/сек
Цветовое пространство : YUV
Субдискретизация насыщенности : 4:2:0
Битовая глубина : 8 бит
Тип развёртки : Прогрессивная
Метод сжатия : С потерями
Бит/(Пиксели*Кадры) : 0.103
Размер потока : 2,25 Гбайт (64%)
Библиотека кодирования : XviD 1.2.0.dev47 (UTC 2006-11-01)
Default : Да
Forced : Нет
Аудио #1
Идентификатор : 2
Формат : AC-3
Формат/Информация : Audio Coding 3
Расширение режима : CM (complete main)
Параметр Endianness формата : Big
Идентификатор кодека : A_AC3
Продолжительность : 2 ч. 52 м.
Вид битрейта : Постоянный
Битрейт : 448 Кбит/сек
Каналы : 6 каналов
Расположение каналов : Front: L C R, Side: L R, LFE
Частота : 48,0 КГц
Частота кадров : 31,250 кадров/сек (1536 spf)
Метод сжатия : С потерями
Размер потока : 552 Мбайт (15%)
Заголовок : MVO 6ch rus AC3 448
Язык : Russian
Default : Да
Forced : Нет
Аудио #2
Идентификатор : 3
Формат : AC-3
Формат/Информация : Audio Coding 3
Расширение режима : CM (complete main)
Параметр Endianness формата : Big
Идентификатор кодека : A_AC3
Продолжительность : 2 ч. 52 м.
Вид битрейта : Постоянный
Битрейт : 448 Кбит/сек
Каналы : 6 каналов
Расположение каналов : Front: L C R, Side: L R, LFE
Частота : 48,0 КГц
Частота кадров : 31,250 кадров/сек (1536 spf)
Метод сжатия : С потерями
Размер потока : 552 Мбайт (15%)
Язык : Telugu
Default : Нет
Forced : Нет
Аудио #3
Идентификатор : 4
Формат : MPEG Audio
Версия формата : Version 1
Профиль формата : Layer 3
Режим : Joint stereo
Идентификатор кодека : A_MPEG/L3
Идентификатор кодека/Подсказка : MP3
Продолжительность : 2 ч. 52 м.
Вид битрейта : Постоянный
Битрейт : 128 Кбит/сек
Каналы : 2 канала
Частота : 48,0 КГц
Частота кадров : 41,667 кадра/сек (1152 spf)
Метод сжатия : С потерями
Размер потока : 158 Мбайт (4%)
Заголовок : MVO 2ch mp3
Язык : Russian
Default : Нет
Forced : Нет
Текст #1
Идентификатор : 5
Формат : UTF-8
Идентификатор кодека : S_TEXT/UTF8
Идентификатор кодека/Информация : UTF-8 Plain Text
Продолжительность : 2 ч. 51 м.
Битрейт : 83 бит/сек
Count of elements : 1999
Размер потока : 105 Кбайт (0%)
Язык : Russian
Default : Да
Forced : Нет
Текст #2
Идентификатор : 6
Формат : UTF-8
Идентификатор кодека : S_TEXT/UTF8
Идентификатор кодека/Информация : UTF-8 Plain Text
Продолжительность : 2 ч. 49 м.
Битрейт : 51 бит/сек
Count of elements : 1997
Размер потока : 63,8 Кбайт (0%)
Язык : English
Default : Нет
Forced : Нет
Релиз от: king Art
[Профиль] [ЛС]
Кто просматривает тему:

Показать сообщения:    

Текущее время: Сегодня 03:23

Часовой пояс: GMT



Вы не можете начинать темы
Вы не можете отвечать на сообщения
Вы не можете редактировать свои сообщения
Вы не можете удалять свои сообщения
Вы не можете голосовать в опросах
Вы не можете прикреплять файлы к сообщениям
Вы не можете скачивать файлы