Под прицелом / Silent Trigger (1996) BDRip 1080p

 
Автор Сообщение

sergej644 ®

Пол:

Стаж: 4 года 11 месяцев

Сообщений: 6046

Откуда: Soviet Union



Награды: Нет

Торрент-статистика

Создавать темы 15-Янв-2015 15:59

[Цитировать]

Информация о фильме
Название: Под прицелом
Оригинальное название: Silent Trigger
Год выхода: 1996
Жанр: Боевик, триллер, драма
Режиссер: Расселл Малкэхи
В ролях: Дольф Лундгрен, Джина Беллман, Конрад Данн, Кристофер Хейердал, Эмма Стивенс, Александрия Абер, Рейнольд Робинсон, Дэйл Хэйес, Эрин Симс, Джонатан Роберт Рондо, Карло Алакки, Джонатан Лароккью, Андреас Апергис, Тим Пост, Джейсон Кавалье, Луис Фаранд, Ларри Дэй
О фильме:
«Снайпер», суперкомандос, работающий на «Агентство» — законспирированную правительственную организацию, управляемую Координатором». «Снайпер» начинает сомневаться, всматриваться в глаза и лица своих мишеней.А его «Контролер», второй член снайперской команды, несмотря на молодость, обладает жесткой хваткой и решительностью наемного убийцы. После того, как первая миссия их снайперской команды закончилась провалом и едва их не погубила, они вновь сталкиваются при выполнении задания для «Агентства», давшего им шанс вернуться в систему. Их мишень: автомобиль, который должен проехать по скоростному шоссе на рассвете. Им противостоят не только сомнения, призраки и беззащитная мишень. «Координатор» отдал приказ «Контролеру» уничтожить «Снайпера», если тот вновь провалит операцию.

Страна: Канада, Великобритания
Студия: Algonquin Productions Limited
Продолжительность: 01:33:52
Перевод: Профессиональный двухголосый, авторский
Файл
Кодек: h.264
Качество: BDRip 1080p
Видео: MPEG-4 AVC, 1920x816, 9 468 Мбит/с, 23.976 кадр/с
Звук:
Аудио #1: Русский ( AC3, 2ch, 192 Кбит/с, 48.0 KH z) Двухголосый закадровый
Аудио #2: Русский ( AC3, 2ch, 192 Кбит/с, 48.0 KHz) Двухголосый закадровый (РТР)
Аудио #3: Русский ( AC3, 6ch, 448 Кбит/с, 48.0 KHz) Авторский одноголосый ( С.Визгунов)
Аудио #4: Русский (AC3, 2ch, 224 Кбит/с, 48.0 KHz) Авторский одноголосый (П.Карцев)
Аудио #5: Английский ( AC3, 6ch, 448 Кбит/с, 48.0 KHz)
Субтитры: Русские, английские, немецкие

MediaInfo

Complete name : Silent.Trigger.1996.BDRip.1080p.mkv
Format : Matroska
Format version : Version 4 / Version 2
File size : 7.35 GiB
Duration : 1h 33mn
Overall bit rate : 11.2 Mbps
Encoded date : UTC 2015-01-15 09:04:48
Writing application : mkvmerge v6.9.1 ('Blue Panther') 64bit built on Apr 18 2014 18:23:38
Writing library : libebml v1.3.0 + libmatroska v1.4.1
Video
ID : 1
Format : AVC
Format/Info : Advanced Video Codec
Format profile : High@L4.1
Format settings, CABAC : Yes
Format settings, ReFrames : 4 frames
Codec ID : V_MPEG4/ISO/AVC
Duration : 1h 33mn
Bit rate : 9 468 Kbps
Nominal bit rate : 10 000 Kbps
Width : 1 920 pixels
Height : 816 pixels
Display aspect ratio : 2.35:1
Frame rate mode : Constant
Frame rate : 23.976 fps
Color space : YUV
Chroma subsampling : 4:2:0
Bit depth : 8 bits
Scan type : Progressive
Bits/(Pixel*Frame) : 0.252
Stream size : 6.21 GiB (85%)
Title : Video
Writing library : x264 core 125 r2200 999b753
Encoding settings : cabac=1 / ref=4 / deblock=1:-1:-1 / analyse=0x3:0x113 / me=umh / subme=11 / psy=1 / psy_rd=1.00:0.15 / mixed_ref=1 / me_range=32 / chroma_me=1 / trellis=2 / 8x8dct=1 / cqm=0 / deadzone=21,11 / fast_pskip=1 / chroma_qp_offset=-3 / threads=6 / lookahead_threads=1 / sliced_threads=0 / nr=0 / decimate=1 / interlaced=0 / bluray_compat=0 / constrained_intra=0 / bframes=12 / b_pyramid=2 / b_adapt=2 / b_bias=0 / direct=3 / weightb=1 / open_gop=0 / weightp=2 / keyint=250 / keyint_min=23 / scenecut=40 / intra_refresh=0 / rc_lookahead=50 / rc=abr / mbtree=1 / bitrate=10000 / ratetol=1.0 / qcomp=0.60 / qpmin=0 / qpmax=69 / qpstep=4 / ip_ratio=1.40 / aq=1:1.00
Language : English
Default : Yes
Forced : No
Audio #1
ID : 2
Format : AC-3
Format/Info : Audio Coding 3
Mode extension : CM (complete main)
Format settings, Endianness : Big
Codec ID : A_AC3
Duration : 1h 33mn
Bit rate mode : Constant
Bit rate : 192 Kbps
Channel(s) : 2 channels
Channel positions : Front: L R
Sampling rate : 48.0 KHz
Bit depth : 16 bits
Compression mode : Lossy
Stream size : 129 MiB (2%)
Title : Audio 1
Language : Russian
Default : Yes
Forced : No
Audio #2
ID : 3
Format : AC-3
Format/Info : Audio Coding 3
Mode extension : CM (complete main)
Format settings, Endianness : Big
Codec ID : A_AC3
Duration : 1h 33mn
Bit rate mode : Constant
Bit rate : 192 Kbps
Channel(s) : 2 channels
Channel positions : Front: L R
Sampling rate : 48.0 KHz
Bit depth : 16 bits
Compression mode : Lossy
Stream size : 129 MiB (2%)
Title : Audio 2
Language : Russian
Default : No
Forced : No
Audio #3
ID : 4
Format : AC-3
Format/Info : Audio Coding 3
Mode extension : CM (complete main)
Format settings, Endianness : Big
Codec ID : A_AC3
Duration : 1h 33mn
Bit rate mode : Constant
Bit rate : 448 Kbps
Channel(s) : 6 channels
Channel positions : Front: L C R, Side: L R, LFE
Sampling rate : 48.0 KHz
Bit depth : 16 bits
Compression mode : Lossy
Stream size : 301 MiB (4%)
Title : Audio 3
Language : Russian
Default : No
Forced : No
Audio #4
ID : 5
Format : AC-3
Format/Info : Audio Coding 3
Mode extension : CM (complete main)
Format settings, Endianness : Big
Codec ID : A_AC3
Duration : 1h 33mn
Bit rate mode : Constant
Bit rate : 224 Kbps
Channel(s) : 2 channels
Channel positions : Front: L R
Sampling rate : 48.0 KHz
Bit depth : 16 bits
Compression mode : Lossy
Stream size : 151 MiB (2%)
Title : Audio 4
Language : Russian
Default : No
Forced : No
Audio #5
ID : 6
Format : AC-3
Format/Info : Audio Coding 3
Mode extension : CM (complete main)
Format settings, Endianness : Big
Codec ID : A_AC3
Duration : 1h 33mn
Bit rate mode : Constant
Bit rate : 448 Kbps
Channel(s) : 6 channels
Channel positions : Front: L C R, Side: L R, LFE
Sampling rate : 48.0 KHz
Bit depth : 16 bits
Compression mode : Lossy
Stream size : 301 MiB (4%)
Title : Audio 5
Language : English
Default : No
Forced : No
Text #1
ID : 7
Format : PGS
Muxing mode : zlib
Codec ID : S_HDMV/PGS
Codec ID/Info : The same subtitle format used on BDs/HD-DVDs
Language : Russian
Default : Yes
Forced : No
Text #2
ID : 8
Format : PGS
Muxing mode : zlib
Codec ID : S_HDMV/PGS
Codec ID/Info : The same subtitle format used on BDs/HD-DVDs
Language : English
Default : No
Forced : No
Text #3
ID : 9
Format : PGS
Muxing mode : zlib
Codec ID : S_HDMV/PGS
Codec ID/Info : The same subtitle format used on BDs/HD-DVDs
Language : German
Default : No
Forced : No

Скриншоты

[Профиль] [ЛС]
Кто просматривает тему:

Показать сообщения:    

Текущее время: Сегодня 06:26

Часовой пояс: GMT



Вы не можете начинать темы
Вы не можете отвечать на сообщения
Вы не можете редактировать свои сообщения
Вы не можете удалять свои сообщения
Вы не можете голосовать в опросах
Вы не можете прикреплять файлы к сообщениям
Вы не можете скачивать файлы