Под одной луной / Under The Same Moon / La Misma luna (Патрисия Ригген / Patricia Riggen) [2007, Мексика, США, драма, DVDRip] VO

 
Автор Сообщение

TorrentFilm ®

Пол:

Стаж: 2 года

Сообщений: 7741



Награды: Нет

Торрент-статистика

Создавать темы 14-Мар-2015 00:01

[Цитировать]

Под одной луной / Under The Same Moon / La Misma luna
Страна: Мексика, США
Жанр: драма
Год выпуска: 2007
Продолжительность: 01:48:13
Перевод: Одноголосый закадровый
Cубтитры: нет
Режиссер: Патрисия Ригген / Patricia Riggen
В ролях: Адриан Алонсо / Adrian Alonso, Кейт дель Кастилло / Kate del Castillo, Эудженио Дербез / Eugenio Derbez, Майя Запата / Maya Zapata, Кармен Салинас / Carmen Salinas
Описание: Две развивающиеся параллельно истории: девятилетнего Карлитоса, живущего в Мексике, и его матери Росарио, четыре года назад отправившейся нелегально работать в Америку, чтобы обеспечить лучшую жизнь своему сыну.
После смерти бабушки, присматривавшей за ним, Карлитос нелегально пересекает границу и отправляется в Лос-Анджелес, чтобы найти свою мать, в то время как Росарио вынуждена бороться с постоянно возникающими сложностями в чужой стране.




Качество видео: DVDRip
Формат видео: AVI
Видео: 720x384 (1.88:1), 23.976 fps, XviD build 64 ~1574 kbps avg, 0.24 bit/pixel
Аудио: 48 kHz, AC3 Dolby Digital, 2/0 (L,R) ch, ~192 kbps

MediaInfo

K:\Rozdacha\La_misma_luna_2007.avi
General
Complete name : K:\Rozdacha\La_misma_luna_2007.avi
Format : AVI
Format/Info : Audio Video Interleave
File size : 1.37 GiB
Duration : 1h 50mn
Overall bit rate : 1 774 Kbps
Video #0
ID : 0
Format : MPEG-4 Visual
Format profile : Advanced Simple@L5
Format settings, BVOP : 1
Format settings, QPel : No
Format settings, GMC : No warppoints
Format settings, Matrix : Default (H.263)
Codec ID : XVID
Codec ID/Hint : XviD
Duration : 1h 50mn
Bit rate : 1 574 Kbps
Width : 720 pixels
Height : 384 pixels
Display aspect ratio : 1.85:1
Frame rate : 23.976 fps
Color space : YUV
Chroma subsampling : 4:2:0
Bit depth : 8 bits
Scan type : Progressive
Compression mode : Lossy
Bits/(Pixel*Frame) : 0.237
Stream size : 1.21 GiB (89%)
Writing library : XviD 64
Audio #1
ID : 1
Format : AC-3
Format/Info : Audio Coding 3
Mode extension : CM (complete main)
Format settings, Endianness : Big
Codec ID : 2000
Duration : 1h 50mn
Bit rate mode : Constant
Bit rate : 192 Kbps
Channel(s) : 2 channels
Channel positions : Front: L R
Sampling rate : 48.0 KHz
Bit depth : 16 bits
Compression mode : Lossy
Stream size : 152 MiB (11%)
Alignment : Split accross interleaves
Interleave, duration : 64 ms (1.53 video frames)
Interleave, preload duration : 500 ms

Скриншот c названием фильма

[Профиль] [ЛС]

Создавать темы 06-Авг-2015 22:42 (спустя 4 месяца 23 дня)

Топик был перенесен из форума Фильмы до 2014 года в форум Фильмы до 2012 года
sergej644
 
Кто просматривает тему:

Показать сообщения:    

Текущее время: Сегодня 08:44

Часовой пояс: GMT



Вы не можете начинать темы
Вы не можете отвечать на сообщения
Вы не можете редактировать свои сообщения
Вы не можете удалять свои сообщения
Вы не можете голосовать в опросах
Вы не можете прикреплять файлы к сообщениям
Вы не можете скачивать файлы