Под огнем / Under Fire (Роджер Споттисвуд) [1983, Драма, военный, BDRip] 1080p

 
Автор Сообщение

sergej644 ®

Пол:

Стаж: 4 года 11 месяцев

Сообщений: 6039

Откуда: Soviet Union



Награды: Нет

Торрент-статистика

Создавать темы 20-Мар-2015 20:44

[Цитировать]

Название: Под огнем
Оригинальное название: Under Fire
Год выхода: 1983
Жанр: Драма, военный
Режиссер: Роджер Споттисвуд
В ролях: Ник Нолти, Эд Харрис, Джин Хэкмен, Джоанна Кэссиди, Жан-Луи Трентиньян, Альма Мартинез, Холли Пэланс, Хэмилтон Кэмп, Ричард Мейсер, Дженни Гэго, Элпидия Каррильо, Рауль Пикассо, Освальдо Дория, Фернандо Элизондо, Хорхе Сантойо, Люсина Рохас, Рауль Гарсия, Виктор Алькосер, Эрик Ф. Валдез, Энрике Лусеро, Жерардо Альбарран, Элой Касадос, Карлос Романо, Рене Энрикес, Хосе Кампос мл., Халим Кэмп, Антонио Мата мл., Хулио Сизар Васкез, Мартин ЛаСалль, Филипе Уайтьюарт, Хорхе Сепеда, Альфредо Гутьеррес, Хосе Марин, Октавио Круз, Леонор Ллаусас, Умберто Вилчес, Ауй Камачо, Артуро Родригез Доринг, Бруно Бичир, Рикардо Рамирез, Хосе Карлос Родригез, Энрике Хернандез, Моника Мигель, Луиза Санчез М., Клэй Райт, Майкл Краули, Роберт Стоун
О фильме:
Расселл Прайс воспринимает революцию в Никарагуа через камеру, чтобы дистанцироваться от реальности. В Манагуа его эмоциональная отрешенность от происходящего подвергается испытанию, когда он видит резкий контраст между жизнью сторонников президента Сомосы и тем, что приходится переносить всем остальным в стране…

Страна: Мексика, США, Lion's Gate Films, Under Fire Associates
Продолжительность: 02:08:15
Озвучено: Дублированный / Профессиональный двухголосый / Любительский одноголосый (Герасимов)
Кодек: H.264
Качество: BDRip 1080p
Видео: MPEG-4 AVC, 9717 Кбит/с, 1920x1040, 23.976 кадр/с
Перевод: Русский (AC3, 2 ch, 192 Кбит/с), (AC3, 2 ch, 256 Кбит/с), английский (DTS, 2 ch, 1510 Кбит/с), (AC3, 2 ch, 224 Кбит/с)
Субтитры: Английские

Инфо-файл

Полное имя : D:Раздачи_DUnder.Fire.1983.x264.BDRip.1080p.NovaLan.mkv
Формат : Matroska
Версия формата : Version 4 / Version 2
Размер файла : 11,0 Гбайт
Продолжительность : 2 ч. 8 м.
Общий поток : 12,3 Мбит/сек
Название фильма : Under Fire 1983 - NovaLan
Дата кодирования : UTC 2015-03-15 15:40:46
Программа кодирования : mkvmerge v7.7.0 ('Six Voices') 64bit built on Feb 28 2015 23:39:33
Библиотека кодирования : libebml v1.3.1 + libmatroska v1.4.2
DURATION : 02:03:18.692000000
NUMBER_OF_FRAMES : 985
NUMBER_OF_BYTES : 37889
_STATISTICS_WRITING_APP : mkvmerge v7.7.0 ('Six Voices') 64bit built on Feb 28 2015 23:39:33
_STATISTICS_WRITING_DATE_UTC : 2015-03-15 15:40:46
_STATISTICS_TAGS : BPS DURATION NUMBER_OF_FRAMES NUMBER_OF_BYTES
Видео
Идентификатор : 1
Формат : AVC
Формат/Информация : Advanced Video Codec
Профиль формата : High@L4.1
Параметр CABAC формата : Да
Параметр ReFrames формата : 4 кадра
Идентификатор кодека : V_MPEG4/ISO/AVC
Продолжительность : 2 ч. 8 м.
Битрейт : 9717 Кбит/сек
Ширина : 1920 пикселей
Высота : 1040 пикселей
Соотношение сторон : 1,85:1
Частота кадров : 23,976 кадра/сек
Цветовое пространство : YUV
Субдискретизация насыщенности : 4:2:0
Битовая глубина : 8 бит
Тип развёртки : Прогрессивная
Бит/(Пиксели*Кадры) : 0.203
Размер потока : 8,48 Гбайт (77%)
Заголовок : Sergei7721
Библиотека кодирования : x264 core 133 r2334 a3ac64b
Настройки программы : cabac=1 / ref=4 / deblock=1:-1:-1 / analyse=0x3:0x113 / me=umh / subme=11 / psy=1 / psy_rd=1.00:0.20 / mixed_ref=1 / me_range=24 / chroma_me=1 / trellis=2 / 8x8dct=1 / cqm=0 / deadzone=21,11 / fast_pskip=0 / chroma_qp_offset=-3 / threads=12 / lookahead_threads=1 / sliced_threads=0 / nr=0 / decimate=0 / interlaced=0 / bluray_compat=0 / constrained_intra=0 / bframes=6 / b_pyramid=2 / b_adapt=2 / b_bias=0 / direct=3 / weightb=1 / open_gop=0 / weightp=2 / keyint=240 / keyint_min=23 / scenecut=40 / intra_refresh=0 / rc_lookahead=40 / rc=2pass / mbtree=0 / bitrate=9717 / ratetol=1.0 / qcomp=0.60 / qpmin=0 / qpmax=69 / qpstep=4 / cplxblur=20.0 / qblur=0.5 / vbv_maxrate=50000 / vbv_bufsize=62500 / nal_hrd=none / ip_ratio=1.40 / pb_ratio=1.30 / aq=1:1.00
Default : Да
Forced : Нет
DURATION : 02:08:12.685000000
NUMBER_OF_FRAMES : 184440
NUMBER_OF_BYTES : 9340060947
_STATISTICS_WRITING_APP : mkvmerge v7.7.0 ('Six Voices') 64bit built on Feb 28 2015 23:39:33
_STATISTICS_WRITING_DATE_UTC : 2015-03-15 15:40:46
_STATISTICS_TAGS : BPS DURATION NUMBER_OF_FRAMES NUMBER_OF_BYTES
Аудио #1
Идентификатор : 2
Формат : AC-3
Формат/Информация : Audio Coding 3
Расширение режима : CM (complete main)
Параметр Endianness формата : Big
Идентификатор кодека : A_AC3
Продолжительность : 2 ч. 8 м.
Вид битрейта : Постоянный
Битрейт : 192 Кбит/сек
Каналы : 2 канала
Расположение каналов : Front: L R
Частота : 48,0 КГц
Битовая глубина : 16 бит
Метод сжатия : С потерями
Размер потока : 176 Мбайт (2%)
Язык : Russian
Default : Да
Forced : Нет
Аудио #2
Идентификатор : 3
Формат : AC-3
Формат/Информация : Audio Coding 3
Расширение режима : CM (complete main)
Параметр Endianness формата : Big
Идентификатор кодека : A_AC3
Продолжительность : 2 ч. 8 м.
Вид битрейта : Постоянный
Битрейт : 256 Кбит/сек
Каналы : 2 канала
Расположение каналов : Front: L R
Частота : 48,0 КГц
Битовая глубина : 16 бит
Метод сжатия : С потерями
Размер потока : 235 Мбайт (2%)
Язык : Russian
Default : Нет
Forced : Нет
Аудио #3
Идентификатор : 4
Формат : AC-3
Формат/Информация : Audio Coding 3
Расширение режима : CM (complete main)
Параметр Endianness формата : Big
Идентификатор кодека : A_AC3
Продолжительность : 2 ч. 8 м.
Вид битрейта : Постоянный
Битрейт : 192 Кбит/сек
Каналы : 2 канала
Расположение каналов : Front: L R
Частота : 48,0 КГц
Битовая глубина : 16 бит
Метод сжатия : С потерями
Размер потока : 176 Мбайт (2%)
Язык : Russian
Default : Нет
Forced : Нет
Аудио #4
Идентификатор : 5
Формат : DTS
Формат/Информация : Digital Theater Systems
Идентификатор кодека : A_DTS
Продолжительность : 2 ч. 8 м.
Вид битрейта : Постоянный
Битрейт : 1510 Кбит/сек
Каналы : 2 канала
Расположение каналов : Front: L R
Частота : 48,0 КГц
Битовая глубина : 24 бит
Метод сжатия : С потерями
Размер потока : 1,35 Гбайт (12%)
Язык : English
Default : Нет
Forced : Нет
Аудио #5
Идентификатор : 6
Формат : AC-3
Формат/Информация : Audio Coding 3
Расширение режима : CM (complete main)
Параметр Endianness формата : Big
Идентификатор кодека : A_AC3
Продолжительность : 2 ч. 8 м.
Вид битрейта : Постоянный
Битрейт : 224 Кбит/сек
Каналы : 2 канала
Расположение каналов : Front: L R
Частота : 48,0 КГц
Битовая глубина : 16 бит
Метод сжатия : С потерями
Размер потока : 206 Мбайт (2%)
Язык : English
Default : Нет
Forced : Нет
Аудио #6
Идентификатор : 7
Формат : AC-3
Формат/Информация : Audio Coding 3
Расширение режима : CM (complete main)
Параметр Endianness формата : Big
Идентификатор кодека : A_AC3
Продолжительность : 2 ч. 8 м.
Вид битрейта : Постоянный
Битрейт : 224 Кбит/сек
Каналы : 2 канала
Расположение каналов : Front: L R
Частота : 48,0 КГц
Битовая глубина : 16 бит
Метод сжатия : С потерями
Размер потока : 206 Мбайт (2%)
Язык : English
Default : Нет
Forced : Нет
Текст
Идентификатор : 8
Формат : UTF-8
Идентификатор кодека : S_TEXT/UTF8
Идентификатор кодека/Информация : UTF-8 Plain Text
Язык : English
Default : Нет
Forced : Нет
Меню
00:00:00.000 : en:00:00:00.000
00:11:01.703 : en:00:11:01.703
00:23:11.932 : en:00:23:11.932
00:35:27.542 : en:00:35:27.542
00:46:13.688 : en:00:46:13.688
00:56:47.529 : en:00:56:47.529
01:08:28.479 : en:01:08:28.479
01:20:53.557 : en:01:20:53.557
01:32:16.281 : en:01:32:16.281
01:43:48.222 : en:01:43:48.222
01:56:00.370 : en:01:56:00.370
02:04:40.431 : en:02:04:40.431
[Профиль] [ЛС]
Кто просматривает тему:

Показать сообщения:    

Текущее время: Сегодня 16:37

Часовой пояс: GMT



Вы не можете начинать темы
Вы не можете отвечать на сообщения
Вы не можете редактировать свои сообщения
Вы не можете удалять свои сообщения
Вы не можете голосовать в опросах
Вы не можете прикреплять файлы к сообщениям
Вы не можете скачивать файлы