Под маской / Beyond the Mask (2015) BDRip 720p | iTunes

 
Автор Сообщение

BOSS ®

Пол:

Стаж: 2 года 1 месяц

Сообщений: 3718

Откуда: ODESSA



Награды: 20 (Подробнее)

Top Releaser 3 (Количество: 1) Mega Seeder 1 (Количество: 1) Mega Seeder 2 (Количество: 1)
Торрент-статистика

Создавать темы 08-Мар-2016 15:33

[Цитировать]

Информация о фильме
Название: Под маской
Оригинальное название: Beyond the Mask
Год выхода: 2015
Жанр: Боевик, драма
Выпущено: США / Burns Family Studios
Режиссер: Чад Барнс
В ролях: Эндрю Чейни, Джон Рис-Дэвис, Кара Киллмер, Alan Madlane, Адетокумбо Маккормак, Самрат Чакрабарти, Стив Блэквуд, Томас Д. Махард, Чарли Ньюхарт, Энни Китрал
О фильме:
Стремясь изменить свою жизнь, убийца Ост-Индской компании прячется от своего прошлого в тихой английской деревне, надев мантию англиканского священника. Но это маскировка длится не долго, когда любимая женщина и война заставляют его показать, кто он есть на самом деле. В условиях надвигающегося глобального конфликта, он открывает для себя смысл и источник истинного правосудия и свободы.

Выпущено: США / Burns Family Studios
Продолжительность: 01:44:33
Озвучивание: Профессиональный многоголосый [iTunes]
Файлы:
Качество: BDRip 720p
Видео: MPEG-4 AVC, 5385 Kb/s, 1280x536, 23.976 fps
Аудио #1: Русский (AC3, 6 ch, 384 Кбит/с)
Аудио #2: Английский (AC3, 6 ch, 448 Кбит/с)
Продолжительность: 01:44:47

Инфо-файл:

General
Unique ID : 233414615172080200336774582261502998890 (0xAF9A0509DD0686FF93622D821274796A)
Complete name : P0d.Ma7k0y.2015.P.BDRip.720p.mkv
Format : Matroska
Format version : Version 2
File size : 4.55 GiB
Duration : 1h 44mn
Overall bit rate : 6 216 Kbps
Encoded date : UTC 2016-03-06 19:12:38
Writing application : mkvmerge v8.3.0 ('Over the Horizon') 64bit
Writing library : libebml v1.3.1 + libmatroska v1.4.2
Video
ID : 1
Format : AVC
Format/Info : Advanced Video Codec
Format profile : High@L4.1
Format settings, CABAC : Yes
Format settings, ReFrames : 5 frames
Codec ID : V_MPEG4/ISO/AVC
Duration : 1h 44mn
Bit rate : 5 385 Kbps
Width : 1 280 pixels
Height : 536 pixels
Display aspect ratio : 2.40:1
Frame rate mode : Constant
Frame rate : 23.976 (24000/1001) fps
Color space : YUV
Chroma subsampling : 4:2:0
Bit depth : 8 bits
Scan type : Progressive
Bits/(Pixel*Frame) : 0.327
Stream size : 3.94 GiB (87%)
Writing library : x264 core 148 r2597 e86f3a1
Encoding settings : cabac=1 / ref=5 / deblock=1:0:0 / analyse=0x3:0x113 / me=umh / subme=8 / psy=1 / psy_rd=1.00:0.00 / mixed_ref=1 / me_range=16 / chroma_me=1 / trellis=1 / 8x8dct=1 / cqm=0 / deadzone=21,11 / fast_pskip=0 / chroma_qp_offset=-2 / threads=12 / lookahead_threads=2 / sliced_threads=0 / nr=0 / decimate=1 / interlaced=0 / bluray_compat=0 / constrained_intra=0 / bframes=3 / b_pyramid=2 / b_adapt=2 / b_bias=0 / direct=3 / weightb=1 / open_gop=0 / weightp=2 / keyint=250 / keyint_min=23 / scenecut=40 / intra_refresh=0 / rc_lookahead=50 / rc=2pass / mbtree=1 / bitrate=5385 / ratetol=1.0 / qcomp=0.60 / qpmin=0 / qpmax=69 / qpstep=4 / cplxblur=20.0 / qblur=0.5 / ip_ratio=1.40 / aq=1:1.00
Language : English
Default : Yes
Forced : No
Audio #1
ID : 2
Format : AC-3
Format/Info : Audio Coding 3
Mode extension : CM (complete main)
Format settings, Endianness : Big
Codec ID : A_AC3
Duration : 1h 44mn
Bit rate mode : Constant
Bit rate : 384 Kbps
Channel(s) : 6 channels
Channel positions : Front: L C R, Side: L R, LFE
Sampling rate : 48.0 KHz
Frame rate : 31.250 fps (1536 spf)
Compression mode : Lossy
Delay relative to video : 30ms
Stream size : 288 MiB (6%)
Language : Russian
Default : Yes
Forced : No
Audio #2
ID : 3
Format : AC-3
Format/Info : Audio Coding 3
Mode extension : CM (complete main)
Format settings, Endianness : Big
Codec ID : A_AC3
Duration : 1h 44mn
Bit rate mode : Constant
Bit rate : 448 Kbps
Channel(s) : 6 channels
Channel positions : Front: L C R, Side: L R, LFE
Sampling rate : 48.0 KHz
Frame rate : 31.250 fps (1536 spf)
Compression mode : Lossy
Stream size : 336 MiB (7%)
Title : TieR0ly7eNk0
Language : English
Default : No
Forced : No
Menu
00:00:00.000 : en:00:00:00.000
00:03:14.111 : en:00:03:14.111
00:08:57.037 : en:00:08:57.037
00:18:47.543 : en:00:18:47.543
00:35:08.648 : en:00:35:08.648
00:47:33.017 : en:00:47:33.017
00:57:52.511 : en:00:57:52.511
01:02:02.719 : en:01:02:02.719
01:09:07.810 : en:01:09:07.810
01:17:50.332 : en:01:17:50.332
01:23:49.566 : en:01:23:49.566
01:34:16.860 : en:01:34:16.860
01:44:04.321 : en:01:44:04.321

Скриншоты


[Профиль] [ЛС]
Кто просматривает тему:

Показать сообщения:    

Текущее время: Сегодня 06:28

Часовой пояс: GMT



Вы не можете начинать темы
Вы не можете отвечать на сообщения
Вы не можете редактировать свои сообщения
Вы не можете удалять свои сообщения
Вы не можете голосовать в опросах
Вы не можете прикреплять файлы к сообщениям
Вы не можете скачивать файлы