Под маской жиголо / Fading Gigolo (Джон Туртурро / John Turturro) [2013, США, комедия, BDRip] Dub

 
Автор Сообщение

sergej644 ®

Пол:

Стаж: 4 года 11 месяцев

Сообщений: 6046

Откуда: Soviet Union



Награды: Нет

Торрент-статистика

Создавать темы 05-Авг-2014 17:33

[Цитировать]

Под маской жиголо / Fading Gigolo
Страна: США
Жанр: комедия
Год выпуска: 2013
Продолжительность: 01:30:00
Перевод: Профессиональный (дублированный) Tunes Russian
Cубтитры: нет
Оригинальная аудиодорожка: нет
Режиссер: Джон Туртурро / John Turturro
В ролях: Джон Туртурро, Вуди Аллен, Шэрон Стоун, София Вергара, Ванесса Паради, Лив Шрайбер, Тоня Пинкинс, Джейд Диксон, Обри Джозеф, Данте Хоагленд
Описание: Герой Вуди предлагает своему небогатому другу услуги сутенера в оригинальном бизнесе - любовных играх с состоятельными женщинами. И, казалось бы, все пошло как по маслу, но после череды комичных ляпов и позорных провалов, становится очевидно, что парни плывут против течения денег и любви…

MPAA: R - Лицам до 17 лет обязательно присутствие взрослого-
Автор рипа: Vikosol

Качество видео: BDRip [Fading.Gigolo.2013.1080p.BluRay.AVC.TrueHD.5.1-HDAccess]
Формат видео: AVI
Видео: XviD, 720x384 (1.875), 1915 kbps, 23,976 fps, 0,289 bpp
Аудио: AC3 / 5.1 / 48 kHz / 384 kbps / 16 bit

MediaInfo

Format                           : AVI
Format/Info                      : Audio Video Interleave
File size                        : 1.45 GiB
Duration                         : 1h 29mn
Overall bit rate                 : 2 308 Kbps
Movie name                       : Fading.Gigolo.2013.XviD.BDRip_Vikosol
Director                         : Rutracker
Writing application              : VirtualDubMod 1.5.10.3 | www.virtualdub-fr.org || (build 2550/release)
Video
ID                               : 0
Format                           : MPEG-4 Visual
Format profile                   : Advanced Simple@L5
Format settings, BVOP            : 1
Format settings, QPel            : No
Format settings, GMC             : No warppoints
Format settings, Matrix          : Custom
Codec ID                         : XVID
Codec ID/Hint                    : XviD
Duration                         : 1h 29mn
Bit rate                         : 1 915 Kbps
Width                            : 720 pixels
Height                           : 384 pixels
Display aspect ratio             : 1.875
Frame rate                       : 23.976 fps
Color space                      : YUV
Chroma subsampling               : 4:2:0
Bit depth                        : 8 bits
Scan type                        : Progressive
Compression mode                 : Lossy
Bits/(Pixel*Frame)               : 0.289
Stream size                      : 1.20 GiB (83%)
Writing library                  : XviD 73
Audio
ID                               : 1
Format                           : AC-3
Format/Info                      : Audio Coding 3
Mode extension                   : CM (complete main)
Codec ID                         : 2000
Duration                         : 1h 29mn
Bit rate mode                    : Constant
Bit rate                         : 384 Kbps
Channel(s)                       : 6 channels
Channel positions                : Front: L C R, Side: L R, LFE
Sampling rate                    : 48.0 KHz
Bit depth                        : 16 bits
Compression mode                 : Lossy
Stream size                      : 247 MiB (17%)
Alignment                        : Split accross interleaves
Interleave, duration             : 42 ms (1.00 video frame)
Interleave, preload duration     : 500 ms

Скриншоты

[Профиль] [ЛС]
Кто просматривает тему:

Показать сообщения:    

Текущее время: Сегодня 13:04

Часовой пояс: GMT



Вы не можете начинать темы
Вы не можете отвечать на сообщения
Вы не можете редактировать свои сообщения
Вы не можете удалять свои сообщения
Вы не можете голосовать в опросах
Вы не можете прикреплять файлы к сообщениям
Вы не можете скачивать файлы