Под листьями / Beneath the Leaves (2019) WEB-DL 1080p | HDRezka Studio

 
Author Message

BOSS ®

Gender:

Longevity: 4 years 7 months

Posts: 14097

Location: ODESSA



: 22 ()

Top Seeder 3 (1) Top Releaser 3 (1) Mega Seeder 2 (1)
Торрент-статистика

Post 14-Mar-2019 19:46

[Quote]

Информация о фильме
Название: Под листьями
Оригинальное название: Beneath the Leaves
Год выпуска: 2019
Жанр: Триллер
Режиссер: Адам Марино
В ролях: Даг Джонс, Мира Сорвино, Кристоффер Полаха, Мелора Уолтерс, Кристофер Мастерсон, Сер’Дариус Блэйн, Лили Бордан, Дон Суэйзи, Пол Сорвино, Кристофер Бакус
О фильме: Психопат Джеймс Уитли похищает четырех мальчиков. Его попытка воссоединить приемных детей с покойными биологическими родителями заканчивается освобождением детей и его арестом. Через двадцать лет во время пожара в тюрьме Уитли сбегает и собирается закончить начатое. Детектива Ларсона, бывшую жертву Уитли, отстраняют от дела, теперь им занимается его коллега и любовница детектив Шотвелл. Гнев и шанс на искупление заставляют Ларсона преследовать психопата, из-за чего он попадает в ту же ловушку, из который выбрался в детстве.

Выпущено: США, Reel Fire Entertainment
Продолжительность: 01:30:23
Перевод: Профессиональный (многоголосый, закадровый) | HDRezka Studio
Файл
Качество: WEB-DL 1080p
Контейнер: MKV
Видео: MPEG-4 AVC, 4553 Кбит/с, 1914х792, 23.976 fps
Аудио 1: Русский: AC3, 2 ch, 192 Кбит/с - HDRezka Studio
Аудио 2: Английский: AC3, 6 ch, 384 Кбит/с - Original
Субтитры: Английские
Релиз от:

Скриншоты


MediaInfo

General
Unique ID : 211559082895706789303456950436966137474 (0x9F28CC1A40DB8079EB23D1CE37CF7E82)
Complete name : F:Beneath.The.Leaves.2019.webdL.108Op.werecut.PROD.mkv
Format : Matroska
Format version : Version 4
File size : 3.24 GiB
Duration : 1 h 30 min
Overall bit rate : 5 131 kb/s
Movie name : Beneath The Leaves 2019 OT werecut PROD.
Encoded date : UTC 2019-03-11 13:21:23
Writing application : mkvmerge v28.0.0 ('Voice In My Head') 64-bit
Writing library : libebml v1.3.6 + libmatroska v1.4.9
Video
ID : 1
Format : AVC
Format/Info : Advanced Video Codec
Format profile : High@L4
Format settings : CABAC / 5 Ref Frames
Format settings, CABAC : Yes
Format settings, ReFrames : 5 frames
Codec ID : V_MPEG4/ISO/AVC
Duration : 1 h 30 min
Bit rate : 4 553 kb/s
Width : 1 914 pixels
Height : 792 pixels
Display aspect ratio : 2.40:1
Frame rate mode : Constant
Frame rate : 23.976 FPS
Color space : YUV
Chroma subsampling : 4:2:0
Bit depth : 8 bits
Scan type : Progressive
Bits/(Pixel*Frame) : 0.125
Stream size : 2.87 GiB (89%)
Language : English
Default : Yes
Forced : No
Color range : Limited
Color primaries : BT.709
Transfer characteristics : BT.709
Matrix coefficients : BT.709
Audio #1
ID : 2
Format : AC-3
Format/Info : Audio Coding 3
Commercial name : Dolby Digital
Codec ID : A_AC3
Duration : 1 h 30 min
Bit rate mode : Constant
Bit rate : 192 kb/s
Channel(s) : 2 channels
Channel layout : L R
Sampling rate : 48.0 kHz
Frame rate : 31.250 FPS (1536 SPF)
Bit depth : 16 bits
Compression mode : Lossy
Delay relative to video : -42 ms
Stream size : 124 MiB (4%)
Title : HDREZKA STUDIO
Language : Russian
Service kind : Complete Main
Default : Yes
Forced : No
Audio #2
ID : 3
Format : AC-3
Format/Info : Audio Coding 3
Commercial name : Dolby Digital
Codec ID : A_AC3
Duration : 1 h 30 min
Bit rate mode : Constant
Bit rate : 384 kb/s
Channel(s) : 6 channels
Channel layout : L R C LFE Ls Rs
Sampling rate : 48.0 kHz
Frame rate : 31.250 FPS (1536 SPF)
Bit depth : 16 bits
Compression mode : Lossy
Delay relative to video : -42 ms
Stream size : 248 MiB (7%)
Language : English
Service kind : Complete Main
Default : No
Forced : No
Text
ID : 4
Format : UTF-8
Codec ID : S_TEXT/UTF8
Codec ID/Info : UTF-8 Plain Text
Duration : 1 h 22 min
Bit rate : 48 b/s
Count of elements : 1163
Stream size : 29.2 KiB (0%)
Language : English
Default : No
Forced : No
Menu
00:00:00.000 : en:1
00:05:04.000 : en:2
00:10:19.000 : en:3
00:18:16.000 : en:4
00:22:25.000 : en:5
00:27:49.000 : en:6
00:34:27.000 : en:7
00:41:46.000 : en:8
00:47:07.000 : en:9
00:52:07.000 : en:10
00:56:11.000 : en:11
01:05:51.000 : en:12
01:09:00.000 : en:13
01:15:33.000 : en:14
01:21:43.000 : en:15
01:25:08.000 : en:16
[Profile] [PM]
Кто просматривает тему:

Display posts from previous:    

The time now is: Today 08:16

All times are GMT



You cannot post new topics in this forum
You cannot reply to topics in this forum
You cannot edit your posts in this forum
You cannot delete your posts in this forum
You cannot vote in polls in this forum
You cannot attach files in this forum
You cannot download files in this forum