Под кайфом и в смятении / Dazed and Confused (1993) BDRip 720p

 
Автор Сообщение

sergej644 ®

Пол:

Стаж: 4 года 11 месяцев

Сообщений: 6042

Откуда: Soviet Union



Награды: Нет

Торрент-статистика

Создавать темы 08-Фев-2015 11:25

[Цитировать]

Информация о фильме
Название: Под кайфом и в смятении
Оригинальное название: Dazed and Confused
Год выхода: 1993
Жанр: драма, комедия
Режиссер: Ричард Линклейтер
В ролях: Джейсон Лондон, Джои Лорен Эдамс, Милла Йовович, Шон Эндрюс, Рори Кокрейн, Адам Голдберг, Энтони Рэпп, Саша Дженсон, Марисса Рибизи, Дина Мартин, Бен Аффлек, Мэттью МакКонахи
О фильме: На дворе убойные 70-е. Сегодня — последний урок в школе, а завтра начинается новая жизнь… Но это будет завтра, а сегодня новоиспеченные выпускники возьмут от жизни все! Они устраивают грандиозные проводы детства при участии «главных атрибутов» — безумного веселья — секса, наркотиков и рок-н-ролла…

Выпущено: США
Продолжительность: 01:42:28
Перевод: Профессиональный (двухголосый, закадровый) + Профессиональный (многоголосый, закадровый)
Файл
Качество: BDRip 720р
Формат: MKV
Видео: MPEG4/AVC, 1280х692 (1.85:1), 6098 Кбит/сек, 23.976 кадра/сек
Аудио 1: AC3, 6 каналов, 384 Кбит/сек | Русский (двухголосый)
Аудио 2: AC3, 2 канала, 192 Кбит/сек | Украинский (многоголосый)
Аудио 3: AC3, 6 каналов, 640 Кбит/сек | Английский
Субтитры: Русские, английские (Full, SDH)
Навигация по главам: Есть

MediaInfo:

Общее
Уникальный идентификатор : 203461786429637532648424661342370816479 (0x991150905510DE2CA3F5A674EC7A61DF)
Полное имя : Dazed and Confused. (1993) BDRip 720p.mkv
Формат : Matroska
Версия формата : Version 2
Размер файла : 5,24 Гбайт
Продолжительность : 1 ч. 42 м.
Общий поток : 7309 Кбит/сек
Название фильма : Dazed and Confused. 1993
Дата кодирования : UTC 2014-09-14 13:50:42
Программа кодирования : mkvmerge v5.8.0 ('No Sleep / Pillow') built on Sep 2 2012 15:37:04
Библиотека кодирования : libebml v1.2.3 + libmatroska v1.3.0
Видео
Идентификатор : 1
Формат : AVC
Формат/Информация : Advanced Video Codec
Профиль формата : High@L4.1
Параметр CABAC формата : Да
Параметр ReFrames формата : 9 кадров
Идентификатор кодека : V_MPEG4/ISO/AVC
Продолжительность : 1 ч. 42 м.
Битрейт : 6098 Кбит/сек
Ширина : 1280 пикселей
Высота : 692 пикселя
Соотношение сторон : 1,85:1
Режим частоты кадров : Постоянный
Частота кадров : 23,976 кадра/сек
Цветовое пространство : YUV
Субдискретизация насыщенности : 4:2:0
Битовая глубина : 8 бит
Тип развёртки : Прогрессивная
Бит/(Пиксели*Кадры) : 0.287
Размер потока : 4,26 Гбайт (81%)
Заголовок : CHD
Библиотека кодирования : x264 core 102 r1666 d058f37
Настройки программы : cabac=1 / ref=9 / deblock=1:-3:-3 / analyse=0x3:0x113 / me=umh / subme=10 / psy=1 / psy_rd=1.05:0.10 / mixed_ref=1 / me_range=32 / chroma_me=1 / trellis=2 / 8x8dct=1 / cqm=2 / deadzone=21,11 / fast_pskip=0 / chroma_qp_offset=-2 / threads=6 / sliced_threads=0 / nr=0 / decimate=1 / interlaced=0 / constrained_intra=0 / bframes=6 / b_pyramid=2 / b_adapt=2 / b_bias=0 / direct=3 / weightb=1 / open_gop=0 / weightp=2 / keyint=250 / keyint_min=25 / scenecut=40 / intra_refresh=0 / rc_lookahead=40 / rc=2pass / mbtree=1 / bitrate=6098 / ratetol=1.0 / qcomp=0.60 / qpmin=10 / qpmax=51 / qpstep=4 / cplxblur=20.0 / qblur=0.5 / vbv_maxrate=50000 / vbv_bufsize=50000 / ip_ratio=1.40 / aq=1:0.80 / nal_hrd=none
Язык : English
Default : Да
Forced : Нет
Аудио #1
Идентификатор : 2
Формат : AC-3
Формат/Информация : Audio Coding 3
Расширение режима : CM (complete main)
Параметр Endianness формата : Big
Идентификатор кодека : A_AC3
Продолжительность : 1 ч. 42 м.
Вид битрейта : Постоянный
Битрейт : 384 Кбит/сек
Каналы : 6 каналов
Расположение каналов : Front: L C R, Side: L R, LFE
Частота : 48,0 КГц
Битовая глубина : 16 бит
Метод сжатия : С потерями
Размер потока : 282 Мбайт (5%)
Заголовок : AC3 | 384 Kbps
Язык : Russian
Default : Да
Forced : Нет
Аудио #2
Идентификатор : 3
Формат : AC-3
Формат/Информация : Audio Coding 3
Расширение режима : CM (complete main)
Параметр Endianness формата : Big
Идентификатор кодека : A_AC3
Продолжительность : 1 ч. 42 м.
Вид битрейта : Постоянный
Битрейт : 192 Кбит/сек
Каналы : 2 канала
Расположение каналов : Front: L R
Частота : 48,0 КГц
Битовая глубина : 16 бит
Метод сжатия : С потерями
Размер потока : 141 Мбайт (3%)
Заголовок : AC3 | 192 Kbps
Язык : Ukrainian
Default : Нет
Forced : Нет
Аудио #3
Идентификатор : 4
Формат : AC-3
Формат/Информация : Audio Coding 3
Расширение режима : CM (complete main)
Параметр Endianness формата : Big
Идентификатор кодека : A_AC3
Продолжительность : 1 ч. 42 м.
Вид битрейта : Постоянный
Битрейт : 640 Кбит/сек
Каналы : 6 каналов
Расположение каналов : Front: L C R, Side: L R, LFE
Частота : 48,0 КГц
Битовая глубина : 16 бит
Метод сжатия : С потерями
Размер потока : 469 Мбайт (9%)
Заголовок : AC3 | 640 Kbps
Язык : English
Default : Нет
Forced : Нет
Текст #1
Идентификатор : 5
Формат : UTF-8
Идентификатор кодека : S_TEXT/UTF8
Идентификатор кодека/Информация : UTF-8 Plain Text
Заголовок : Full
Язык : Russian
Default : Нет
Forced : Нет
Текст #2
Идентификатор : 6
Формат : UTF-8
Идентификатор кодека : S_TEXT/UTF8
Идентификатор кодека/Информация : UTF-8 Plain Text
Заголовок : Full
Язык : English
Default : Нет
Forced : Нет
Текст #3
Идентификатор : 7
Формат : UTF-8
Идентификатор кодека : S_TEXT/UTF8
Идентификатор кодека/Информация : UTF-8 Plain Text
Заголовок : SDH
Язык : English
Default : Нет
Forced : Нет
Меню
00:00:00.000 : en:00:00:00.000
00:10:54.529 : en:00:10:54.529
00:17:26.963 : en:00:17:26.963
00:27:30.065 : en:00:27:30.065
00:33:51.488 : en:00:33:51.488
00:38:26.554 : en:00:38:26.554
00:41:19.477 : en:00:41:19.477
00:47:23.090 : en:00:47:23.090
00:52:40.491 : en:00:52:40.491
00:54:40.777 : en:00:54:40.777
01:01:20.218 : en:01:01:20.218
01:07:49.315 : en:01:07:49.315
01:22:04.753 : en:01:22:04.753
01:25:09.354 : en:01:25:09.354
01:31:02.624 : en:01:31:02.624
01:34:51.728 : en:01:34:51.728

Скриншоты

Релиз от:
[Профиль] [ЛС]
Кто просматривает тему:

Показать сообщения:    

Текущее время: Сегодня 18:12

Часовой пояс: GMT



Вы не можете начинать темы
Вы не можете отвечать на сообщения
Вы не можете редактировать свои сообщения
Вы не можете удалять свои сообщения
Вы не можете голосовать в опросах
Вы не можете прикреплять файлы к сообщениям
Вы не можете скачивать файлы