Подъем с глубины / Deep Rising (1998) BDRip 1080p | Р2

 
Автор Сообщение

sergej644 ®

Пол:

Стаж: 4 года 11 месяцев

Сообщений: 6045

Откуда: Soviet Union



Награды: Нет

Торрент-статистика

Создавать темы 31-Окт-2014 15:33

[Цитировать]

--Подъем с глубины / Deep Rising (1998)
Информация о фильме
Название: Подъем с глубины
Оригинальное название: Deep Rising
Год выхода: 1998
Страна: США
Выпущено: Calimari Productions, Cinergi Pictures Entertainment Inc., Hollywood Pictures
Жанр: Ужасы, фантастика, боевик, триллер
Продолжительность: 01:46:08
Перевод: Профессиональный (Двухголосый закадровый "West Multimedia") [R5]
Режиссер: Стивен Соммерс
В ролях: Трит Уильямс, Фамке Янссен, Энтони Хилд, Кевин Дж. О’Коннор, Уэс Студи, Деррик О’Коннор, Джейсон Флеминг, Клифф Кёртис, Клифтон Пауэлл, Тревор Годдар, Джимон Хунсу, Уна Дэймон, Клинт Кертис, Уоррен Текучи, Линден Бэнкс, Джек Анкер, Лиэнн Адачи, Мелани Карр, Джим Мэй, Яна Соммерс, Марти Балдеччи, Рана Моррисон-Сюжет фильма
Банда наемников отправляется на перехват океанского пассажирского лайнера с целью захвата драгоценностей и денег. Вооруженные до зубов, они рассчитывают на успех этой тщательно спланированной операции.Но боевая уверенность захватчиков сменяется ужасом перед небывалыми чудовищами, устроившими пир на корабле! У этих монстров здесь не было противников! И кровь тысяч людей не смогла утолить их жажду!
-Файл
Кодек:
Формат: Matroska
Качество: BDRip 1080p
Видео: AVC 1920x816 (2.35:1), 23.976 fps, 6940 kbps, 0.185 Bit/Pixel
Аудио 1: AC-3 (5.1) 16 bit, 48 kHz, 384 kbps (Rus)
Аудио 2: AC-3 (5.1) 16 bit, 48 kHz, 448 kbps (Eng)
Субтитры: UTF-8 Русские, Английские
Размер: 1/4 BD
Меню: Сохранены оригинальные чаптеры Blu-ray--

MI

General
Unique ID : 199891427410061175475783315373147590932 (0x9661B045F641782B91AD3BEAF67C9114)
Format : Matroska
Format version : Version 2
File size : 5.76 GiB
Duration : 1h 46mn
Overall bit rate : 7 765 Kbps
Movie name : Подъем с глубины (1998) BDRip (1080p)
Encoded date : UTC 2013-03-08 07:55:23
Writing application : mkvmerge v5.8.0 ('No Sleep / Pillow') built on Sep 2 2012 15:37:04
Writing library : libebml v1.2.3 + libmatroska v1.3.0
Video
ID : 1
Format : AVC
Format/Info : Advanced Video Codec
Format profile : High@L4.1
Format settings, CABAC : Yes
Format settings, ReFrames : 5 frames
Codec ID : V_MPEG4/ISO/AVC
Duration : 1h 46mn
Bit rate : 6 940 Kbps
Width : 1 920 pixels
Height : 816 pixels
Display aspect ratio : 2.35:1
Frame rate mode : Constant
Frame rate : 23.976 fps
Color space : YUV
Chroma subsampling : 4:2:0
Bit depth : 8 bits
Scan type : Progressive
Bits/(Pixel*Frame) : 0.185
Stream size : 5.03 GiB (87%)
Title : Release by Alex260680
Writing library : x264 core 130 r2273 b3065e6
Encoding settings : cabac=1 / ref=5 / deblock=1:-3:-3 / analyse=0x3:0x113 / me=umh / subme=10 / psy=1 / psy_rd=1.00:0.10 / mixed_ref=1 / me_range=32 / chroma_me=1 / trellis=2 / 8x8dct=1 / cqm=0 / deadzone=21,11 / fast_pskip=0 / chroma_qp_offset=-3 / threads=12 / lookahead_threads=1 / sliced_threads=0 / nr=0 / decimate=0 / interlaced=0 / bluray_compat=0 / constrained_intra=0 / bframes=5 / b_pyramid=2 / b_adapt=2 / b_bias=0 / direct=3 / weightb=1 / open_gop=0 / weightp=2 / keyint=240 / keyint_min=23 / scenecut=40 / intra_refresh=0 / rc=2pass / mbtree=0 / bitrate=6940 / ratetol=1.0 / qcomp=0.60 / qpmin=0 / qpmax=69 / qpstep=4 / cplxblur=20.0 / qblur=0.5 / ip_ratio=1.40 / pb_ratio=1.30 / aq=1:0.80
Language : English
Default : Yes
Forced : No
Audio #1
ID : 2
Format : AC-3
Format/Info : Audio Coding 3
Mode extension : CM (complete main)
Format settings, Endianness : Big
Codec ID : A_AC3
Duration : 1h 46mn
Bit rate mode : Constant
Bit rate : 384 Kbps
Channel(s) : 6 channels
Channel positions : Front: L C R, Side: L R, LFE
Sampling rate : 48.0 KHz
Bit depth : 16 bits
Compression mode : Lossy
Stream size : 292 MiB (5%)
Title : DVO (West Multimedia) R5
Language : Russian
Default : Yes
Forced : No
Audio #2
ID : 3
Format : AC-3
Format/Info : Audio Coding 3
Mode extension : CM (complete main)
Format settings, Endianness : Big
Codec ID : A_AC3
Duration : 1h 46mn
Bit rate mode : Constant
Bit rate : 448 Kbps
Channel(s) : 6 channels
Channel positions : Front: L C R, Side: L R, LFE
Sampling rate : 48.0 KHz
Bit depth : 16 bits
Compression mode : Lossy
Stream size : 340 MiB (6%)
Title : Original
Language : English
Default : No
Forced : No
Text #1
ID : 4
Format : UTF-8
Codec ID : S_TEXT/UTF8
Codec ID/Info : UTF-8 Plain Text
Language : Russian
Default : No
Forced : No
Text #2
ID : 5
Format : UTF-8
Codec ID : S_TEXT/UTF8
Codec ID/Info : UTF-8 Plain Text
Language : English
Default : No
Forced : No
Menu
00:00:00.000 : en:00:00:00.000
00:08:57.412 : en:00:08:57.412
00:17:29.423 : en:00:17:29.423
00:26:46.188 : en:00:26:46.188
00:37:03.888 : en:00:37:03.888
00:45:13.544 : en:00:45:13.544
00:56:11.326 : en:00:56:11.326
01:06:52.175 : en:01:06:52.175
01:17:26.433 : en:01:17:26.433
01:25:07.978 : en:01:25:07.978
01:31:15.470 : en:01:31:15.470
01:38:28.236 : en:01:38:28.236

x264

x264 [info]: frame I:1020 Avg QP:18.38 size:102137
x264 [info]: frame P:42087 Avg QP:20.83 size: 55803
x264 [info]: frame B:109581 Avg QP:22.73 size: 27963
-Скриншоты
--
[Профиль] [ЛС]
Кто просматривает тему:

Показать сообщения:    

Текущее время: Сегодня 09:57

Часовой пояс: GMT



Вы не можете начинать темы
Вы не можете отвечать на сообщения
Вы не можете редактировать свои сообщения
Вы не можете удалять свои сообщения
Вы не можете голосовать в опросах
Вы не можете прикреплять файлы к сообщениям
Вы не можете скачивать файлы