Подтверждение / The Confirmation (2016) BDRemux 1080p от ivandubskoj | L1

 
Автор Сообщение

Russian Mafia ®

Пол:

Стаж: 1 год 8 месяцев

Сообщений: 4257



Награды: 10 (Подробнее)

За внесенный вклад в развитие сайта (Количество: 1) Top Releaser 5 (Количество: 1) Mega Seeder 2 (Количество: 1)
Торрент-статистика

Создавать темы 27-Май-2016 12:50

[Цитировать]

Информация о фильме
Название: Подтверждение / Конфирмация
Оригинальное название: The Confirmation
Год выхода: 2016
Жанр: драма, комедия
Режиссёр: Боб Нельсон
В ролях: Джейден Либерер, Клайв Оуэн, Спенсер Древер, Мария Белло, Пэттон Освальт, Стивен Тоболовски, Майкл Эклунд, Райан Роббинс, Тим Блейк Нельсон, Роберт Форстер, Мэттью Модайн, Куинн Дюбуа, Лувия Петерсен, Гари Чок, Патрик Гилмор, Кэтрин Лок Хэггквист, Дженнифер Коппинг, Элиза Фариа, Джон Стюарт, Гленн Бек, Дин Рэй, Квеси Амеяу, Дэйв Коллетт, Скотт Пате, Том Пикетт
О фильме:
Восьмилетний Энтони вынужден провести выходные со своим алкоголиком-отцом, с которым его мать находится в разводе. Для них обоих — это нелегкое испытание, сопровождающееся чередой происшествий. Преодолевая трудности вместе, они осознают, сколь крепка связь между ними.
Выпущено: Канада / Bungalow Media + Entertainment, Lighthouse Pictures, Sapphire Fire Limited
Продолжительность: 01:41:19
Перевод: Любительский одноголосый [Павел Морозов aka PashaUp]
Оригинальная аудио-дорожка: Английская
Файл
Качество: BDRemux 1080p [Исходник: The.Confirmation.2016.1080p.BluRay.AVC.DTS-HD.MA.5.1]
Формат: MKV
Видео: MPEG-4 AVC, 17.9 Мбит/с, 1920x1080, 23.976 кадр/с
Аудио #1: Русский, Dolby AC3, 48000 Гц, 192 Кбит/с, 2 канала (Стерео) - VO [П. Морозов aka PashaUp]
Аудио #2: Русский, Dolby AC3, 48000 Гц, 640 Кбит/с, 6 каналов (5.1) - Оригинал
Аудио #3: Русский, DTS-HD MA, 48000 Гц, 3188 Кбит/с, 6 каналов (5.1) - Оригинал
Субтитры: Русские, английские (полные, SDH) SRT
Навигация по главам: Есть (Сохранены оригинальные чаптеры, как на Blu-ray)

MediaInfo

General
Unique ID : 191144385234078419377279821913203384255 (0x8FCD11CC37FCE297B286F1E668FF9FBF)
Complete name : The.Confirmation.2016.BDRemux.1080p.mkv
Format : Matroska
Format version : Version 4 / Version 2
File size : 15.5 GiB
Duration : 1h 41mn
Overall bit rate mode : Variable
Overall bit rate : 21.9 Mbps
Movie name : Подтверждение / The Confirmation (2016) Blu-ray Remux (1080p) от ivandubskoj
Encoded date : UTC 2016-05-27 09:59:26
Writing application : mkvmerge v7.9.0 ('Birds') 64bit
Writing library : libebml v1.3.1 + libmatroska v1.4.2
Video
ID : 1
Format : AVC
Format/Info : Advanced Video Codec
Format profile : High@L4.1
Format settings, CABAC : Yes
Format settings, ReFrames : 4 frames
Codec ID : V_MPEG4/ISO/AVC
Duration : 1h 41mn
Bit rate mode : Variable
Maximum bit rate : 35.0 Mbps
Width : 1 920 pixels
Height : 1 080 pixels
Display aspect ratio : 16:9
Frame rate mode : Constant
Frame rate : 23.976 fps
Color space : YUV
Chroma subsampling : 4:2:0
Bit depth : 8 bits
Scan type : Progressive
Title : The Confirmation (2016)
Language : English
Default : Yes
Forced : No
Audio #1
ID : 2
Format : AC-3
Format/Info : Audio Coding 3
Mode extension : CM (complete main)
Format settings, Endianness : Big
Codec ID : A_AC3
Duration : 1h 41mn
Bit rate mode : Constant
Bit rate : 192 Kbps
Channel(s) : 2 channels
Channel positions : Front: L R
Sampling rate : 48.0 KHz
Bit depth : 16 bits
Compression mode : Lossy
Stream size : 139 MiB (1%)
Title : VO [П. Морозов aka PashaUp]
Language : Russian
Default : Yes
Forced : No
Audio #2
ID : 3
Format : AC-3
Format/Info : Audio Coding 3
Mode extension : CM (complete main)
Format settings, Endianness : Big
Codec ID : A_AC3
Duration : 1h 41mn
Bit rate mode : Constant
Bit rate : 640 Kbps
Channel(s) : 6 channels
Channel positions : Front: L C R, Side: L R, LFE
Sampling rate : 48.0 KHz
Bit depth : 16 bits
Compression mode : Lossy
Stream size : 464 MiB (3%)
Title : Original [DD 5.1]
Language : English
Default : No
Forced : No
Audio #3
ID : 4
Format : DTS
Format/Info : Digital Theater Systems
Format profile : MA / Core
Mode : 16
Format settings, Endianness : Big
Codec ID : A_DTS
Duration : 1h 41mn
Bit rate mode : Variable
Bit rate : Unknown / 1 509 Kbps
Channel(s) : 6 channels
Channel positions : Front: L C R, Side: L R, LFE
Sampling rate : 48.0 KHz
Bit depth : 24 bits
Compression mode : Lossless / Lossy
Title : Original [DTS-HD MA 5.1]
Language : English
Default : No
Forced : No
Text #1
ID : 5
Format : UTF-8
Codec ID : S_TEXT/UTF8
Codec ID/Info : UTF-8 Plain Text
Title : Full
Language : Russian
Default : No
Forced : No
Text #2
ID : 6
Format : UTF-8
Codec ID : S_TEXT/UTF8
Codec ID/Info : UTF-8 Plain Text
Title : Full [SDH]
Language : English
Default : No
Forced : No
Menu
00:00:00.000 : en:Chapter 01
00:06:21.464 : en:Chapter 02
00:12:22.324 : en:Chapter 03
00:19:19.199 : en:Chapter 04
00:24:53.492 : en:Chapter 05
00:32:33.159 : en:Chapter 06
00:40:23.879 : en:Chapter 07
00:45:09.456 : en:Chapter 08
00:52:24.141 : en:Chapter 09
00:58:12.030 : en:Chapter 10
01:04:48.885 : en:Chapter 11
01:11:06.512 : en:Chapter 12
01:19:20.672 : en:Chapter 13
01:24:22.348 : en:Chapter 14
01:31:32.320 : en:Chapter 15
01:36:48.052 : en:Chapter 16

Скриншоты



[Профиль] [ЛС]
Кто просматривает тему:

Форум Тема Автор Размер
Фильмы (HD Rips | 720p, 1080p) Подтверждение / The Confirmation (2016) WEB-DL 720p | L1 достали все 3.25 GB
Показать сообщения:    

Текущее время: Сегодня 16:27

Часовой пояс: GMT



Вы не можете начинать темы
Вы не можете отвечать на сообщения
Вы не можете редактировать свои сообщения
Вы не можете удалять свои сообщения
Вы не можете голосовать в опросах
Вы не можете прикреплять файлы к сообщениям
Вы не можете скачивать файлы