Подтверждение / The Confirmation (2016) WEB-DL 720p | L1

 
Автор Сообщение

достали все ®

Пол:

Стаж: 1 год 8 месяцев

Сообщений: 6570



Награды: 12 (Подробнее)

Mega Seeder 1 (Количество: 1) Mega Releaser 1 (Количество: 1) Top Releaser 2 (Количество: 1)
Торрент-статистика

Создавать темы 12-Май-2016 10:50

[Цитировать]

Информация о фильме
Название: Подтверждение / Конфирмация
Оригинальное название: The Confirmation
Год выхода: 2016
Жанр: драма, комедия
Режиссер: Боб Нельсон
В ролях: Джейден Либерер, Клайв Оуэн, Спенсер Древер, Мария Белло, Пэттон Освальт, Стивен Тоболовски, Майкл Эклунд, Райан Роббинс, Тим Блейк Нельсон, Роберт Форстер, Мэттью Модайн, Куинн Дюбуа, Лувия Петерсен, Гари Чок, Патрик Гилмор, Кэтрин Лок Хэггквист, Дженнифер Коппинг, Элиза Фариа, Джон Стюарт, Гленн Бек, Дин Рэй, Квеси Амеяу, Дэйв Коллетт, Скотт Пате, Том Пикетт
О фильме:
Восьмилетний Энтони вынужден провести выходные со своим алкоголиком-отцом, с которым его мать находится в разводе. Для них обоих — это нелегкое испытание, сопровождающееся чередой происшествий. Преодолевая трудности вместе, они осознают, сколь крепка связь между ними.

Производство: Канада / Bungalow Media + Entertainment, Lighthouse Pictures, Sapphire Fire Limited
Продолжительность: 01:41:20
Озвучка: любительская (одноголосая закадровая) [Павел Морозов aka PashaUp]
Файл
Качество: WEB-DL 720p
Формат: MKV
Видео: MPEG-4 AVC, 1280x716 (16:9), 23.976 fps, 3925 kbps, 0.179 bit/pixel
Аудио #1: русский, MP3 2.0, 48 kHz, 192 kbps
Аудио #2: английский, AC3 5.1, 48 kHz, 384 kbps
Субтитры: русские [kidkong], английские вшитые отключаемые

MediaInfo

Формат : Matroska
Версия формата : Version 4 / Version 2
Размер файла : 3,25 Гбайт
Продолжительность : 1 ч. 41 м.
Общий поток : 4593 Кбит/сек
Дата кодирования : UTC 2016-05-11 22:35:46
Программа кодирования : mkvmerge v7.9.0 ('Birds') 64bit
Библиотека кодирования : libebml v1.3.1 + libmatroska v1.4.2
Видео
Идентификатор : 1
Формат : AVC
Формат/Информация : Advanced Video Codec
Профиль формата : High@L3.1
Параметр CABAC формата : Нет
Параметр ReFrames формата : 2 кадра
Идентификатор кодека : V_MPEG4/ISO/AVC
Продолжительность : 1 ч. 41 м.
Битрейт : 3925 Кбит/сек
Ширина : 1280 пикселей
Высота : 716 пикселей
Соотношение сторон : 16:9
Режим частоты кадров : Постоянный
Частота кадров : 23,976 кадра/сек
Цветовое пространство : YUV
Субдискретизация насыщенности : 4:2:0
Битовая глубина : 8 бит
Тип развёртки : Прогрессивная
Бит/(Пиксели*Кадры) : 0.179
Размер потока : 2,78 Гбайт (85%)
Язык : English
Default : Да
Forced : Нет
Цветовой диапазон : Limited
Основные цвета : BT.709
Характеристики трансфера : BT.709
Коэффициенты матрицы : BT.709
Аудио #1
Идентификатор : 2
Формат : MPEG Audio
Версия формата : Version 1
Профиль формата : Layer 3
Режим : Joint stereo
Расширение режима : MS Stereo
Идентификатор кодека : A_MPEG/L3
Идентификатор кодека/Подсказка : MP3
Продолжительность : 1 ч. 41 м.
Вид битрейта : Постоянный
Битрейт : 192 Кбит/сек
Каналы : 2 канала
Частота : 48,0 КГц
Метод сжатия : С потерями
Размер потока : 139 Мбайт (4%)
Заголовок : PashaUp
Язык : Russian
Default : Да
Forced : Нет
Аудио #2
Идентификатор : 3
Формат : AC-3
Формат/Информация : Audio Coding 3
Расширение режима : CM (complete main)
Параметр Endianness формата : Big
Идентификатор кодека : A_AC3
Продолжительность : 1 ч. 41 м.
Вид битрейта : Постоянный
Битрейт : 384 Кбит/сек
Каналы : 6 каналов
Расположение каналов : Front: L C R, Side: L R, LFE
Частота : 48,0 КГц
Метод сжатия : С потерями
Размер потока : 278 Мбайт (8%)
Язык : English
Default : Нет
Forced : Нет
Текст #1
Идентификатор : 4
Формат : UTF-8
Идентификатор кодека : S_TEXT/UTF8
Идентификатор кодека/Информация : UTF-8 Plain Text
Заголовок : kidkong
Язык : Russian
Default : Да
Forced : Нет
Текст #2
Идентификатор : 5
Формат : UTF-8
Идентификатор кодека : S_TEXT/UTF8
Идентификатор кодека/Информация : UTF-8 Plain Text
Язык : English
Default : Нет
Forced : Нет
Меню
00:00:00.000 : en:1
00:03:08.000 : en:2
00:12:58.000 : en:3
00:22:23.000 : en:4
00:32:34.000 : en:5
00:42:26.000 : en:6
00:52:30.000 : en:7
01:02:39.000 : en:8
01:12:50.000 : en:9
01:24:19.000 : en:10
01:36:53.000 : en:11
Релиз от:
[Профиль] [ЛС]
Кто просматривает тему:

Форум Тема Автор Размер
Фильмы (HD DVD, Blu-ray и BDRemux) Подтверждение / The Confirmation (2016) BDRemux 1080p от ivandubskoj | L1 Russian Mafia 15.48 GB
Показать сообщения:    

Текущее время: Сегодня 08:49

Часовой пояс: GMT



Вы не можете начинать темы
Вы не можете отвечать на сообщения
Вы не можете редактировать свои сообщения
Вы не можете удалять свои сообщения
Вы не можете голосовать в опросах
Вы не можете прикреплять файлы к сообщениям
Вы не можете скачивать файлы