Подслушанное / Qie ting feng yun (2009) BDRip 720p от MediaClub | A

 
Автор Сообщение

sergej644 ®

Пол:

Стаж: 4 года 11 месяцев

Сообщений: 6038

Откуда: Soviet Union



Награды: Нет

Торрент-статистика

Создавать темы 05-Дек-2014 17:12

[Цитировать]

Информация о фильме
Название: Подслушанное (На прослушке)
Оригинальное название: Sit yan fung wan (Qie ting feng yun, Overheard)
Год выхода: 2009
Жанр: Боевик, триллер, драма
Выпущено: Гонконг, Китай, Сингапур / Beijing EE-Media Co., Bona Entertainment, Film Unlimited, Neo Studios, Pop Movies, Sil-Metropole Organisation, Xi'an Qujian Film & TV Investment Group Company
Режиссер: Феликс Чонг, Сиу Фай Мак
В ролях: Чинг Ван Лау, Луис Ку, Дэниэл Ву, Чжан Цзинчу, Майкл Вонг, Уэйз Ли, Стефен Ау, Винсент Чик, Мэтт Чоу, Куеени Чу, Алекс Фонг, Генри Фонг, Грэйс Хуанг, Ка Ва Лам, Йинг Кван Лок, Шэрон Люк, Джеффри Вонг, Линг Йеюн, Бен Юэнь
О фильме: Джонни, Джин и Макс - полицейские из отдела расследований экономических преступлений, ведут прослушку и наблюдение за крупной компанией, занимающейся махинациями на рынке ценных бумаг. Целыми днями они безвылазно сидят в помещении, отслеживая и записывая ежедневные разговоры сотрудников компании. Но однажды они засекают разговор главы компании со своей секретаршей, из которого узнают, что на следующий день их акции взлетят. Многодетный Джин, которому необходимы деньги на операцию сына, упрашивает Макса не протоколировать этот разговор, а использовать полученную информацию и самим сыграть на бирже. Макс, который собирается жениться на девушке из богатой семьи и испытывает постоянное давление со стороны будущего тестя, видит в этом возможность обеспечить себе независимость. Джонни, узнав о произошедшем, помогает подопечным замести следы. Но на следующий день об утечке становится известно, торги приостанавливают, а команду Джонни подвергают внутреннему расследованию, в то время как авторы сорванной аферы ищут виновных.

Страна: Гонконг, Китай, Сингапур
Студия: Beijing EE-Media Co., Bona Entertainment, Film Unlimited, Neo Studios, Pop Movies, Sil-Metropole Organisation, Xi'an Qujian Film & TV Investment Group Company
Продолжительность: 01:39:29
Перевод: Авторский одноголосый
Файл
Кодек: MPEG-4 AVC
Качество: BDRip 720p
Видео: 4500 Кбит/с, 1280х554, 24.000кадр/с
Звук:
Аудио #1: Русский (AC3, 6 ch, 448 Кбит/с) / Авторский одноголосый (Ю. Сербин)
Аудио #2: Китайский (AC3, 6 ch, 448 Кбит/с)
Субтитры: Русские, английские
Семпл

MediaInfo:

Общее
Уникальный идентификатор : 239384433590641435750071077185486763249 (0xB417C3CFA66E5B64B3C531659A6AB4F1)
Полное имя : H:1FilmsHРелизыNa.proslushke.2009.x264.BDRip.720p.MediaClub.mkv
Формат : Matroska
Версия формата : Version 4 / Version 2
Размер файла : 3,75 Гбайт
Продолжительность : 1 ч. 39 м.
Общий поток : 5394 Кбит/сек
Название фильма : -= MediaClub =- rip by Lefevr
Дата кодирования : UTC 2014-12-03 01:07:39
Программа кодирования : mkvmerge v6.1.0 ('Old Devil') built on Mar 4 2013 09:10:42
Библиотека кодирования : libebml v1.3.0 + libmatroska v1.4.0
Видео
Идентификатор : 1
Формат : AVC
Формат/Информация : Advanced Video Codec
Профиль формата : High@L4.1
Параметр CABAC формата : Да
Параметр ReFrames формата : 10 кадров
Идентификатор кодека : V_MPEG4/ISO/AVC
Продолжительность : 1 ч. 39 м.
Битрейт : 4500 Кбит/сек
Ширина : 1280 пикселей
Высота : 544 пикселя
Соотношение сторон : 2,35:1
Режим частоты кадров : Постоянный
Частота кадров : 24,000 кадра/сек
Цветовое пространство : YUV
Субдискретизация насыщенности : 4:2:0
Битовая глубина : 8 бит
Тип развёртки : Прогрессивная
Бит/(Пиксели*Кадры) : 0.269
Размер потока : 3,05 Гбайт (81%)
Заголовок : Na.proslushke.2009.x264.BDRip.720p.MediaClub
Библиотека кодирования : x264 core 130 r2273 b3065e6
Настройки программы : cabac=1 / ref=10 / deblock=1:-2:-2 / analyse=0x3:0x133 / me=umh / subme=11 / psy=1 / psy_rd=1.00:0.15 / mixed_ref=1 / me_range=32 / chroma_me=1 / trellis=2 / 8x8dct=1 / cqm=0 / deadzone=21,11 / fast_pskip=0 / chroma_qp_offset=-3 / threads=6 / lookahead_threads=1 / sliced_threads=0 / nr=0 / decimate=0 / interlaced=0 / bluray_compat=0 / constrained_intra=0 / bframes=8 / b_pyramid=2 / b_adapt=2 / b_bias=0 / direct=3 / weightb=1 / open_gop=0 / weightp=2 / keyint=240 / keyint_min=23 / scenecut=40 / intra_refresh=0 / rc=2pass / mbtree=0 / bitrate=4500 / ratetol=1.0 / qcomp=0.60 / qpmin=0 / qpmax=69 / qpstep=4 / cplxblur=20.0 / qblur=0.5 / ip_ratio=1.40 / pb_ratio=1.30 / aq=1:1.00
Язык : Chinese
Default : Да
Forced : Да
Аудио #1
Идентификатор : 2
Формат : AC-3
Формат/Информация : Audio Coding 3
Расширение режима : CM (complete main)
Параметр Endianness формата : Big
Идентификатор кодека : A_AC3
Продолжительность : 1 ч. 39 м.
Вид битрейта : Постоянный
Битрейт : 448 Кбит/сек
Каналы : 6 каналов
Расположение каналов : Front: L C R, Side: L R, LFE
Частота : 48,0 КГц
Битовая глубина : 16 бит
Метод сжатия : С потерями
Размер потока : 319 Мбайт (8%)
Заголовок : TRACK_01_AVO_RUS_Serbin
Язык : Russian
Default : Да
Forced : Да
Аудио #2
Идентификатор : 3
Формат : AC-3
Формат/Информация : Audio Coding 3
Расширение режима : CM (complete main)
Параметр Endianness формата : Big
Идентификатор кодека : A_AC3
Продолжительность : 1 ч. 39 м.
Вид битрейта : Постоянный
Битрейт : 448 Кбит/сек
Каналы : 6 каналов
Расположение каналов : Front: L C R, Side: L R, LFE
Частота : 48,0 КГц
Битовая глубина : 16 бит
Метод сжатия : С потерями
Размер потока : 319 Мбайт (8%)
Заголовок : TRACK_02_ORIGINAL_CHI
Язык : Chinese
Default : Нет
Forced : Нет
Текст #1
Идентификатор : 4
Формат : UTF-8
Идентификатор кодека : S_TEXT/UTF8
Идентификатор кодека/Информация : UTF-8 Plain Text
Заголовок : TEXT_01_SUB_RUS.srt
Язык : Russian
Default : Нет
Forced : Нет
Текст #2
Идентификатор : 5
Формат : UTF-8
Идентификатор кодека : S_TEXT/UTF8
Идентификатор кодека/Информация : UTF-8 Plain Text
Заголовок : TEXT_02_SUB_ENG.srt
Язык : English
Default : Нет
Forced : Нет
Меню
00:00:00.000 : en:Chapter 1
00:07:25.750 : en:Chapter 2
00:14:07.875 : en:Chapter 3
00:18:44.958 : en:Chapter 4
00:23:49.375 : en:Chapter 5
00:31:56.042 : en:Chapter 6
00:39:37.667 : en:Chapter 7
00:47:08.667 : en:Chapter 8
00:52:46.083 : en:Chapter 9
00:57:58.000 : en:Chapter 10
01:04:28.000 : en:Chapter 11
01:09:29.333 : en:Chapter 12
01:17:50.417 : en:Chapter 13
01:23:52.917 : en:Chapter 14
01:29:33.875 : en:Chapter 15
01:36:25.458 : en:Chapter 16
01:43:04.083 : en:Chapter 17
01:49:53.958 : en:Chapter 18
01:58:28.583 : en:Chapter 19
02:06:20.375 : en:Chapter 20
...last pass...
x264.exe: --pass 2 --bitrate 4500 --preset veryslow --profile high --level 4.1 --ref 10 --deblock -2:-2 --merange 32 --no-fast-pskip --no-dct-decimate --psy-rd 1.00:0.15 --subme 11 --no-mbtree --keyint 240 --sar 1:1 --stats "E:1Films EРелизыOverheard72011111.log" --output "E:1Films EРелизыOverheard72011111.mkv" "F:Temp�049.avs"
avs [info]: 1280x544p 1:1 @ 10000000/416667 fps (cfr)
x264 [info]: using SAR=1/1
x264 [info]: using cpu capabilities: MMX2 SSE2Fast SSSE3 SSE4.2 AVX
x264 [info]: profile High, level 4.1
x264 [info]: frame I:1270 Avg QP:15.64 size:114252
x264 [info]: frame P:31242 Avg QP:17.68 size: 45358
x264 [info]: frame B:110744 Avg QP:20.10 size: 16185
x264 [info]: consecutive B-frames: 2.6% 2.9% 9.7% 13.5% 13.5% 50.1% 4.2% 1.0% 2.5%
x264 [info]: mb I I16..4: 22.7% 52.6% 24.7%
x264 [info]: mb P I16..4: 2.1% 13.2% 1.4% P16..4: 26.9% 34.0% 13.2% 2.4% 0.2% skip: 6.5%
x264 [info]: mb B I16..4: 0.1% 1.2% 0.1% B16..8: 36.1% 22.5% 4.9% direct: 7.1% skip:27.9% L0:42.0% L1:44.2% BI:13.7%
x264 [info]: 8x8 transform intra:75.9% inter:44.9%
x264 [info]: direct mvs spatial:98.5% temporal:1.5%
x264 [info]: coded y,uvDC,uvAC intra: 94.2% 80.4% 58.6% inter: 34.1% 20.4% 7.9%
x264 [info]: i16 v,h,dc,p: 20% 6% 25% 50%
x264 [info]: i8 v,h,dc,ddl,ddr,vr,hd,vl,hu: 9% 8% 15% 9% 12% 12% 12% 11% 13%
x264 [info]: i4 v,h,dc,ddl,ddr,vr,hd,vl,hu: 10% 9% 8% 9% 14% 13% 13% 11% 13%
x264 [info]: i8c dc,h,v,p: 42% 24% 18% 16%
x264 [info]: Weighted P-Frames: Y:7.4% UV:3.7%
x264 [info]: ref P L0: 43.2% 10.0% 21.3% 6.6% 6.1% 3.5% 3.8% 1.7% 2.0% 1.5% 0.2% 0.0%
x264 [info]: ref B L0: 74.6% 12.2% 5.0% 2.8% 1.8% 1.6% 1.2% 0.5% 0.2%
x264 [info]: ref B L1: 94.5% 5.5%
x264 [info]: kb/s:4496.03

Скриншоты

Релиз от: | Автор рипа:
[Профиль] [ЛС]

Создавать темы 06-Авг-2015 22:56 (спустя 8 месяцев 1 день)

Топик был перенесен из форума Фильмы до 2014 года в форум Фильмы до 2012 года
sergej644
 

Создавать темы 12-Июн-2016 08:48 (спустя 1 год 6 месяцев)

Топик был перенесен из форума Фильмы 2011 года в форум Фильмы 2009 года
Russian Mafia
 
Показать сообщения:    

Текущее время: Сегодня 20:03

Часовой пояс: GMT



Вы не можете начинать темы
Вы не можете отвечать на сообщения
Вы не можете редактировать свои сообщения
Вы не можете удалять свои сообщения
Вы не можете голосовать в опросах
Вы не можете прикреплять файлы к сообщениям
Вы не можете скачивать файлы