Подражатель / The Wannabe (2015) BDRemux 1080p от ExKinoRay | Line

 
Автор Сообщение

Russian Mafia ®

Пол:

Стаж: 1 год 8 месяцев

Сообщений: 4257



Награды: 10 (Подробнее)

Top Releaser 2 (Количество: 1) Top Releaser 3 (Количество: 1) Top Releaser 4 (Количество: 1)
Торрент-статистика

Создавать темы 29-Май-2016 11:19

[Цитировать]

Информация о фильме
Название: Подражатель
Оригинальное название: The Wannabe
Год выхода: 2015
Жанр: Триллер, драма, криминал, детектив
Режиссер: Ник Сэндоу
В ролях: Патриция Аркетт, Дэвид Зайас, Майкл Империоли, Винсент Пьяцца, Доменик Ломбардоззи, Ник Сэндоу, Майк Старр, Даг Э. Даг, Ларри Юден, Слэйн
О фильме:
Действие фильма происходит в 1992 году в Нью-Йорке. Мелкий жулик Томас Греко – истинный фанат мафии и классических гангстерских фильмов. Он пытается найти способ, благодаря которому один из его героев, босс мафии Джон Готти, судимый за многочисленные преступления в федеральном суде, может быть оправдан. В эпоху, когда большинство членов банд носят спортивные костюмы, Томас старается выглядеть как парни из старых фильмов. Чем, вероятно, и привлекает внимание Роуз, пожилой женщины, в которой находит единомышленницу.

Страна: США
Студия: Electric Entertainment, Traction Media
Продолжительность: 01:30:37
Перевод: Дублированный | Чистый звук
Файл
Кодек: MPEG-4
Качество: BDRemux 1080p
Видео: 1920x1080, 21.5 Mbit/s, 23.976 fps
Звук:
Аудио #01: 48 kHz, AC3, 2.0, 192 Kbps | Дублированный, Чистый звук |AC3
Аудио #02: 48 kHz, DTS-HD MA, 5.1, 1737 kbps | Оригинал |DTS-HD MA
Субтитры: Английские

MI

General
Unique ID : 206331677324609238447035463506932241169 (0x9B3A091C003FEB97A4483F30468B9311)
Complete name : F:VideoThe.Wannabe.2015.BDREMUX.1080p.ExKinoRay.mkv
Format : Matroska
Format version : Version 4 / Version 2
File size : 14.8 GiB
Duration : 1h 30mn
Overall bit rate mode : Variable
Overall bit rate : 23.4 Mbps
Movie name : The.Wannabe.2015.BDREMUX.1080p.ExKinoRay
Encoded date : UTC 2016-05-29 10:22:44
Writing application : mkvmerge v8.3.0 ('Over the Horizon') 64bit
Writing library : libebml v1.3.1 + libmatroska v1.4.2
Video
ID : 1
Format : AVC
Format/Info : Advanced Video Codec
Format profile : High@L4.1
Format settings, CABAC : Yes
Format settings, ReFrames : 4 frames
Codec ID : V_MPEG4/ISO/AVC
Duration : 1h 30mn
Bit rate mode : Variable
Bit rate : 21.5 Mbps
Maximum bit rate : 35.0 Mbps
Width : 1 920 pixels
Height : 1 080 pixels
Display aspect ratio : 16:9
Frame rate mode : Constant
Frame rate : 23.976 (24000/1001) fps
Standard : NTSC
Color space : YUV
Chroma subsampling : 4:2:0
Bit depth : 8 bits
Scan type : Progressive
Bits/(Pixel*Frame) : 0.432
Stream size : 13.6 GiB (92%)
Title : The.Wannabe.2015.BDREMUX.1080p.ExKinoRay.*** селезень***
Language : English
Default : Yes
Forced : No
Color range : Limited
Color primaries : BT.709
Transfer characteristics : BT.709
Matrix coefficients : BT.709
Audio #1
ID : 2
Format : AC-3
Format/Info : Audio Coding 3
Mode extension : CM (complete main)
Format settings, Endianness : Big
Codec ID : A_AC3
Duration : 1h 30mn
Bit rate mode : Constant
Bit rate : 192 Kbps
Channel(s) : 2 channels
Channel positions : Front: L R
Sampling rate : 48.0 KHz
Frame rate : 31.250 fps (1536 spf)
Compression mode : Lossy
Stream size : 124 MiB (1%)
Title : Line
Language : Russian
Default : Yes
Forced : No
Audio #2
ID : 3
Format : DTS
Format/Info : Digital Theater Systems
Format profile : MA / Core
Mode : 16
Format settings, Endianness : Big
Codec ID : A_DTS
Duration : 1h 30mn
Bit rate mode : Variable / Constant
Bit rate : 1 737 Kbps / 1 509 Kbps
Channel(s) : 6 channels
Channel positions : Front: L C R, Side: L R, LFE
Sampling rate : 48.0 KHz
Frame rate : 93.750 fps (512 spf)
Bit depth : 16 bits
Compression mode : Lossless / Lossy
Stream size : 1.10 GiB (7%)
Title : Original
Language : English
Default : No
Forced : No
Text
ID : 4
Format : UTF-8
Codec ID : S_TEXT/UTF8
Codec ID/Info : UTF-8 Plain Text
Duration : 1h 22mn
Bit rate : 66 bps
Count of elements : 1006
Stream size : 40.3 KiB (0%)
Language : English
Default : No
Forced : No

Скриншоты

[Профиль] [ЛС]
Показать сообщения:    

Текущее время: Сегодня 05:19

Часовой пояс: GMT



Вы не можете начинать темы
Вы не можете отвечать на сообщения
Вы не можете редактировать свои сообщения
Вы не можете удалять свои сообщения
Вы не можете голосовать в опросах
Вы не можете прикреплять файлы к сообщениям
Вы не можете скачивать файлы