Подражатель / The Wannabe (2015) BDRip 720p | D | Line

 
Автор Сообщение

достали все ®

Пол:

Стаж: 1 год 8 месяцев

Сообщений: 6600



Награды: 12 (Подробнее)

Top Releaser 4 (Количество: 1) Mega Seeder 1 (Количество: 1) Top Releaser 2 (Количество: 1)
Торрент-статистика

Создавать темы 29-Май-2016 02:56

[Цитировать]

Информация о фильме
Название: Подражатель
Оригинальное название: The Wannabe
Год выхода: 2015
Жанр: Триллер, драма, криминал, детектив
Режиссер: Ник Сэндоу
В ролях: Патриция Аркетт, Дэвид Зайас, Майкл Империоли, Винсент Пьяцца, Доменик Ломбардоззи, Ник Сэндоу, Майк Старр, Даг Э. Даг, Ларри Юден, Слэйн
О фильме: Действие фильма происходит в 1992 году в Нью-Йорке. Мелкий жулик Томас Греко – истинный фанат мафии и классических гангстерских фильмов. Он пытается найти способ, благодаря которому один из его героев, босс мафии Джон Готти, судимый за многочисленные преступления в федеральном суде, может быть оправдан. В эпоху, когда большинство членов банд носят спортивные костюмы, Томас старается выглядеть как парни из старых фильмов. Чем, вероятно, и привлекает внимание Роуз, пожилой женщины, в которой находит единомышленницу.

Выпущено: США / Electric Entertainment, Traction Media
Продолжительность:01:30:37
Перевод: Дублированный [Чистый звук - Line]
Файл
Формат: MKV
Качество: BDRip 720p
Видео: MPEG-4 AVC, 5368 kb/s, 1280x534
Аудио: Russian: AC3, 192 kb/s (2 ch) / English: DTS, 1510 kb/s (6 ch)
Субтитры: отсутствуют

MI

Общее
Уникальный идентификатор : 245476350750658116778375895256249086665 (0xB8AD0684375B4184B2A9A2C50DE332C9)
Полное имя : D:загрузкиPodrazhatel.2015.D.BDRip.BluRay 720p.mkv
Формат : Matroska
Версия формата : Version 4 / Version 2
Размер файла : 4,48 Гбайт
Продолжительность : 1 ч. 30 м.
Общий поток : 7070 Кбит/сек
Дата кодирования : UTC 2016-05-28 22:52:43
Программа кодирования : mkvmerge v8.3.0 ('Over the Horizon') 64bit
Библиотека кодирования : libebml v1.3.1 + libmatroska v1.4.2
Видео
Идентификатор : 1
Формат : AVC
Формат/Информация : Advanced Video Codec
Профиль формата : High@L4.1
Параметр CABAC формата : Да
Параметр ReFrames формата : 12 кадров
Идентификатор кодека : V_MPEG4/ISO/AVC
Продолжительность : 1 ч. 30 м.
Битрейт : 5368 Кбит/сек
Ширина : 1280 пикселей
Высота : 534 пикселя
Соотношение сторон : 2,40:1
Режим частоты кадров : Постоянный
Частота кадров : 23,976 кадра/сек
Цветовое пространство : YUV
Субдискретизация насыщенности : 4:2:0
Битовая глубина : 8 бит
Тип развёртки : Прогрессивная
Бит/(Пиксели*Кадры) : 0.328
Размер потока : 3,31 Гбайт (74%)
Библиотека кодирования : x264 core 146 r2538 121396c
Настройки программы : cabac=1 / ref=12 / deblock=1:-2:-2 / analyse=0x3:0x133 / me=umh / subme=10 / psy=1 / psy_rd=1.00:0.00 / mixed_ref=1 / me_range=32 / chroma_me=1 / trellis=2 / 8x8dct=1 / cqm=0 / deadzone=21,11 / fast_pskip=0 / chroma_qp_offset=-2 / threads=12 / lookahead_threads=1 / sliced_threads=0 / nr=0 / decimate=0 / interlaced=0 / bluray_compat=0 / constrained_intra=0 / bframes=6 / b_pyramid=2 / b_adapt=2 / b_bias=0 / direct=3 / weightb=1 / open_gop=0 / weightp=2 / keyint=230 / keyint_min=22 / scenecut=40 / intra_refresh=0 / rc_lookahead=60 / rc=2pass / mbtree=1 / bitrate=5368 / ratetol=1.0 / qcomp=0.60 / qpmin=0 / qpmax=69 / qpstep=4 / cplxblur=20.0 / qblur=0.5 / vbv_maxrate=50000 / vbv_bufsize=50000 / nal_hrd=none / filler=0 / ip_ratio=1.40 / aq=1:1.00
Default : Да
Forced : Нет
Аудио #1
Идентификатор : 2
Формат : AC-3
Формат/Информация : Audio Coding 3
Расширение режима : CM (complete main)
Параметр Endianness формата : Big
Идентификатор кодека : A_AC3
Продолжительность : 1 ч. 30 м.
Вид битрейта : Постоянный
Битрейт : 192 Кбит/сек
Каналы : 2 канала
Расположение каналов : Front: L R
Частота : 48,0 КГц
Битовая глубина : 16 бит
Метод сжатия : С потерями
Размер потока : 124 Мбайт (3%)
Язык : Russian
Default : Да
Forced : Нет
Аудио #2
Идентификатор : 3
Формат : DTS
Формат/Информация : Digital Theater Systems
Режим : 16
Параметр Endianness формата : Big
Идентификатор кодека : A_DTS
Продолжительность : 1 ч. 30 м.
Вид битрейта : Постоянный
Битрейт : 1509 Кбит/сек
Каналы : 6 каналов
Расположение каналов : Front: L C R, Side: L R, LFE
Частота : 48,0 КГц
Битовая глубина : 16 бит
Метод сжатия : С потерями
Размер потока : 978 Мбайт (21%)
Язык : English
Default : Нет
Forced : Нет
Меню
00:00:00.000 : en:00:00:00.000
00:06:22.716 : en:00:06:22.716
00:12:25.119 : en:00:12:25.119
00:17:23.334 : en:00:17:23.334
00:22:10.704 : en:00:22:10.704
00:28:43.805 : en:00:28:43.805
00:34:48.920 : en:00:34:48.920
00:41:37.453 : en:00:41:37.453
00:46:11.978 : en:00:46:11.978
00:52:29.063 : en:00:52:29.063
00:58:54.948 : en:00:58:54.948
01:03:07.158 : en:01:03:07.158
01:10:43.781 : en:01:10:43.781
01:16:43.516 : en:01:16:43.516
01:20:04.717 : en:01:20:04.717
01:25:48.060 : en:01:25:48.060

Скриншоты

]



[Профиль] [ЛС]
Показать сообщения:    

Текущее время: Сегодня 01:19

Часовой пояс: GMT



Вы не можете начинать темы
Вы не можете отвечать на сообщения
Вы не можете редактировать свои сообщения
Вы не можете удалять свои сообщения
Вы не можете голосовать в опросах
Вы не можете прикреплять файлы к сообщениям
Вы не можете скачивать файлы