Подозреваемый / The Suspect / Yong-eui-ja (2013) BDRip 720p | L2

 
Author Message

BOSS ®

Gender:

Longevity: 4 years 10 months

Posts: 14162

Location: ODESSA



: 22 ()

Mega Seeder 4 (1) Top Keeper 2 (1) Top Keeper 4 (1)
Торрент-статистика

Post 12-Aug-2019 17:42

[Quote]

Подозреваемый / The Suspect / Yong-eui-ja (2013) BDRip 720p
Информация о фильме
Русское название: Подозреваемый
Оригинальное название: The Suspect / Yong-eui-ja
Год выхода: 2013
Жанр: Боевик, триллер
Режиссер: Шин-юн Вон / Shin-yeon Won
В ролях: Ю Гон, Чжэ Юн Чо, Сон Ха Чо, Хи Сун Пак, Да Ин Ю, Сун Кён Ким, Бо Ра Нам, Чжэ Рим Сон
Описание: Северокорейский шпион, оказавшись покинутым своей страной, оседает в Южной Корее. Вскоре он становится главным подозреваемым в деле об убийстве генерального директора крупной корпорации. Теперь подозреваемому нужно докопаться до правды.

Производство: Корея Южная / Green Fish Pictures, Musa Productions, Showbox/Mediaplex
Продолжительность: 02:17:03
Перевод №1: Любительский (двухголосый, закадровый) | GREEN TEA
Перевод №2: Оригинал (корейский)
Субтитры: Английские (полные) .str | по умолчанию отключены
Файл
Качество: BDRip 720p
Формат: MKV
Видео: MPEG-4 AVC/H.264, 1280x544 (2.35:1), 24.000 fps, 4665 Kbps, 0.279 bit/pixel
Аудио#1: AC3 Dolby Digital, 2 ch, 48 kHz, 192 kbps | DVO
Аудио#2: AC3 Dolby Digital, 6 ch, 48 kHz, 448 kbps | Original
Семпл

MediaInfo

Общее
Уникальный идентификатор : 244803293973987503808851417024719544012 (0xB82B66415DD1E456B885E6796520DECC)
Полное имя : Podozrevaemyj.2013.BDRip.720p.mkv
Формат : Matroska
Версия формата : Version 4 / Version 2
Размер файла : 5,08 Гбайт
Продолжительность : 2 ч. 17 м.
Общий поток : 5306 Кбит/сек
Название фильма : The Suspect (2013) BDRip 720p
Дата кодирования : UTC 2014-11-12 05:10:30
Программа кодирования : mkvmerge v7.3.0 ('Nouages') 64bit built on Oct 22 2014 18:53:34
Библиотека кодирования : libebml v1.3.0 + libmatroska v1.4.1
Видео
Идентификатор : 1
Формат : AVC
Формат/Информация : Advanced Video Codec
Профиль формата : High@L4.1
Параметр CABAC формата : Да
Параметр ReFrames формата : 10 кадров
Идентификатор кодека : V_MPEG4/ISO/AVC
Продолжительность : 2 ч. 17 м.
Битрейт : 4665 Кбит/сек
Ширина : 1280 пикселей
Высота : 544 пикселя
Соотношение сторон : 2,35:1
Режим частоты кадров : Постоянный
Частота кадров : 24,000 кадра/сек
Цветовое пространство : YUV
Субдискретизация насыщенности : 4:2:0
Битовая глубина : 8 бит
Тип развёртки : Прогрессивная
Бит/(Пиксели*Кадры) : 0.279
Размер потока : 4,37 Гбайт (86%)
Заголовок : H.264, 1280x544 (2.35:1), 24.000 fps, 4665 Kbps, 0.279 Bits/(Pixel*Frame)
Библиотека кодирования : x264 core 138 r2356 a1d3d17
Настройки программы : cabac=1 / ref=10 / deblock=1:-3:-3 / analyse=0x3:0x113 / me=umh / subme=10 / psy=1 / psy_rd=1.00:0.05 / mixed_ref=1 / me_range=32 / chroma_me=1 / trellis=2 / 8x8dct=1 / cqm=0 / deadzone=21,11 / fast_pskip=0 / chroma_qp_offset=-2 / threads=18 / lookahead_threads=1 / sliced_threads=0 / nr=0 / decimate=1 / interlaced=0 / bluray_compat=0 / constrained_intra=0 / bframes=4 / b_pyramid=2 / b_adapt=2 / b_bias=0 / direct=3 / weightb=1 / open_gop=0 / weightp=2 / keyint=250 / keyint_min=24 / scenecut=40 / intra_refresh=0 / rc=2pass / mbtree=0 / bitrate=4665 / ratetol=1.0 / qcomp=0.70 / qpmin=0 / qpmax=69 / qpstep=4 / cplxblur=20.0 / qblur=0.5 / ip_ratio=1.40 / pb_ratio=1.30 / aq=2:1.00
Язык : Korean
Default : Да
Forced : Нет
Аудио #1
Идентификатор : 2
Формат : AC-3
Формат/Информация : Audio Coding 3
Расширение режима : CM (complete main)
Параметр Endianness формата : Big
Идентификатор кодека : A_AC3
Продолжительность : 2 ч. 17 м.
Вид битрейта : Постоянный
Битрейт : 192 Кбит/сек
Каналы : 2 канала
Расположение каналов : Front: L R
Частота : 48,0 КГц
Битовая глубина : 16 бит
Метод сжатия : С потерями
Размер потока : 188 Мбайт (4%)
Заголовок : DVO (GREEN TEA) | AC3 Dolby Digital 2.0, 192 kbps, 48 kHz
Язык : Russian
Default : Да
Forced : Нет
Аудио #2
Идентификатор : 3
Формат : AC-3
Формат/Информация : Audio Coding 3
Расширение режима : CM (complete main)
Параметр Endianness формата : Big
Идентификатор кодека : A_AC3
Продолжительность : 2 ч. 17 м.
Вид битрейта : Постоянный
Битрейт : 448 Кбит/сек
Каналы : 6 каналов
Расположение каналов : Front: L C R, Side: L R, LFE
Частота : 48,0 КГц
Битовая глубина : 16 бит
Метод сжатия : С потерями
Размер потока : 439 Мбайт (8%)
Заголовок : Original (KOR) | AC3 Dolby Digital 5.1, 448 kbps, 48 kHz
Язык : Korean
Default : Нет
Forced : Нет
Текст
Идентификатор : 4
Формат : UTF-8
Идентификатор кодека : S_TEXT/UTF8
Идентификатор кодека/Информация : UTF-8 Plain Text
Заголовок : SUB (EN)
Язык : English
Default : Нет
Forced : Нет

Скриншоты

[Profile] [PM]
Кто просматривает тему:

Forum Topic Author Size
Приключения, Квесты, Логические Мрачные истории 8. Главный подозреваемый. Коллекционное издание (2015) PC достали все 939 MB
Зарубежные сериалы Под подозрением / Bajo sospecha [S01] (2014) HDTVRip | L2 достали все 5.64 GB
Зарубежные Подозреваемые / В поле зрения / Person of Interest [04x01-03 из 22] (2014) WEB-DL 720p от HDClub | LostFilm, NewStudio Белочка 4.88 GB
Зарубежные сериалы Подозреваемые / В поле зрения / Person of Interest [04x01-05 из 22] (2014) WEB-DLRip | LostFilm Белочка 2.16 GB
Зарубежные сериалы Подозреваемые / В поле зрения / Person of Interest [04x01-05 из 22] (2014) WEB-DLRip от CasStudio | LostFilm, NewStudio Белочка 4.84 GB
Зарубежные сериалы Подозреваемые / В поле зрения / Person of Interest [04x01-06 из 22] (2014) WEB-DL 1080p | NewStudio Белочка 10.32 GB
Зарубежные сериалы Подозреваемые / В поле зрения / Person of Interest [04x01-06 из 22] (2014) WEB-DLRip | LostFilm Белочка 2.64 GB
Зарубежные сериалы Подозреваемые / В поле зрения / Person of Interest [04x01-06 из 22] (2014) WEB-DLRip | NewStudio Белочка 3.22 GB
Display posts from previous:    

The time now is: Today 15:49

All times are GMT



You cannot post new topics in this forum
You cannot reply to topics in this forum
You cannot edit your posts in this forum
You cannot delete your posts in this forum
You cannot vote in polls in this forum
You cannot attach files in this forum
You cannot download files in this forum