Подмена / Changeling (Клинт Иствуд / Clint Eastwood) [2008, США, Триллер, драма, детектив, история, BDRip] Dub

 
Автор Сообщение

TorrentFilm ®

Пол:

Стаж: 1 год 11 месяцев

Сообщений: 7741



Награды: Нет

Торрент-статистика

Создавать темы 13-Янв-2015 00:00

[Цитировать]

Подмена / Changeling- Год выпуска: 2008
Выпущено: США / Relativity Media
Жанр: триллер, драма, детектив, история
Продолжительность: 02:21:54
Перевод: Профессиональный (полное дублирование) BD CEE
Cубтитры: нет-Режиссер:
Клинт Иствуд / Clint Eastwood-В ролях:
Анджелина Джоли (Christine Collins), Джон Малкович (Rev. Gustav Briegleb), Джеффри Донован (Captain J.J. Jones), Гэттлин Гриффит (Walter Collins), Майкл Келли (Detective Lester Ybarra), Питер Герети (Dr. Earl W. Tarr), Колм Фиор (Chief James E. Davis), Джейсон Батлер Харнер (Gordon Northcott), Эми Райан (Carol Dexter), Дэнис О’Хэйр (Dr. Jonathan Steele)-Описание:
Действие картины развивается в Лос-Анджелесе 20-х годов прошлого столетия. Обратившись в полицию с заявлением об исчезновении ребенка, главная героиня вскоре получает своего сына, но сообщает полицейским, что, несмотря на внешнее сходство, это не ее сын. Вместо помощи несчастная мать получает прописку в палате клиники для сумасшедших…-Релиз групп | | IMDB | КиноПоиск | Сэмпл |-Качество: BDRip [Blu-ray Disc]
Формат: AVI
Видео: 720x304 (2.37:1), 23.976 fps, XviD build 73 ~1269 kbps avg, 0.24 bit/pixel
Аудио: 48 kHz, AC3 Dolby Digital, 2/0 (L,R) ch, ~192.00 kbps avg
-

Скриншоты

MediaInfo

General
Complete name                            : D:\Podmena_2008_BDRip_by_Dalemake.avi
Format                                   : AVI
Format/Info                              : Audio Video Interleave
File size                                : 1.46 GiB
Duration                                 : 2h 21mn
Overall bit rate                         : 1 471 Kbps
Writing application                      : VirtualDubMod 1.5.10.3 | www.virtualdub-fr.org || (build 2550/release)
Writing library                          : VirtualDubMod build 2550/release
Video
ID                                       : 0
Format                                   : MPEG-4 Visual
Format profile                           : Advanced Simple@L5
Format settings, BVOP                    : 1
Format settings, QPel                    : No
Format settings, GMC                     : No warppoints
Format settings, Matrix                  : Custom
Codec ID                                 : XVID
Codec ID/Hint                            : XviD
Duration                                 : 2h 21mn
Bit rate                                 : 1 270 Kbps
Width                                    : 720 pixels
Height                                   : 304 pixels
Display aspect ratio                     : 2.35:1
Frame rate                               : 23.976 fps
Color space                              : YUV
Chroma subsampling                       : 4:2:0
Bit depth                                : 8 bits
Scan type                                : Progressive
Compression mode                         : Lossy
Bits/(Pixel*Frame)                       : 0.242
Stream size                              : 1.26 GiB (86%)
Writing library                          : XviD 73
Audio
ID                                       : 1
Format                                   : AC-3
Format/Info                              : Audio Coding 3
Mode extension                           : CM (complete main)
Format settings, Endianness              : Big
Codec ID                                 : 2000
Duration                                 : 2h 21mn
Bit rate mode                            : Constant
Bit rate                                 : 192 Kbps
Channel(s)                               : 2 channels
Channel positions                        : Front: L R
Sampling rate                            : 48.0 KHz
Bit depth                                : 16 bits
Compression mode                         : Lossy
Stream size                              : 195 MiB (13%)
Alignment                                : Split accross interleaves
Interleave, duration                     : 42 ms (1.00 video frame)
Interleave, preload duration             : 500 ms
-
[Профиль] [ЛС]

Создавать темы 06-Авг-2015 22:48 (спустя 6 месяцев 24 дня)

Топик был перенесен из форума Фильмы до 2014 года в форум Фильмы до 2012 года
sergej644
 

Создавать темы 12-Июн-2016 08:51 (спустя 1 год 4 месяца)

Топик был перенесен из форума Фильмы 2011 года в форум Фильмы 2006-2008 года
Russian Mafia
 
Показать сообщения:    

Текущее время: Сегодня 09:57

Часовой пояс: GMT



Вы не можете начинать темы
Вы не можете отвечать на сообщения
Вы не можете редактировать свои сообщения
Вы не можете удалять свои сообщения
Вы не можете голосовать в опросах
Вы не можете прикреплять файлы к сообщениям
Вы не можете скачивать файлы