Подкидыш (Татьяна Лукашевич) [1939, СССР, комедия, 2 х DVD5] цветной + чёрно-белый, ремастеринг

 
Автор Сообщение

TorrentFilm ®

Пол:

Стаж: 2 года

Сообщений: 7741



Награды: Нет

Торрент-статистика

Создавать темы 02-Янв-2016 00:01

[Цитировать]

Подкидыш
Страна: СССР
Студия: "Мосфильм"
Жанр: комедия
Год выпуска: 1939
Продолжительность: 01:10:03 (цветной) + 01:10:03 (чёрно-белый)
Cубтитры: нет
Режиссер: Татьяна Лукашевич
В ролях: Вероника Лебедева, Фаина Раневская, Петр Репнин, Ростислав Плятт, Рина Зелёная, Ольга Жизнева, Виктор Громов, Татьяна Барышева, Эля Быковская, Дима Глухов, Витя Бойко, Андрей Старостин, Станислав Леута, Николай Арский (Андреев), Иван Лобызовский, Николай Юдин, Фёдор Одиноков, Лёва Аннинский, Лев Иванов
Описание: Мама поехала снимать дачу на лето, оставив маленькую Наташу под присмотром старшего брата Юры. Юра строго-настрого приказал Наташе спать до двух часов. Тут раздался звонок в дверь, и к брату пришли в гости одноклассники - Нина и Алёша. Они настолько увлеклись обсуждением своих пионерских поручений, что не заметили, как Наташа, немного поплакав, оделась, ушла из квартиры на улицу - и потерялась в большом городе, потому что номер квартиры и "звонить два раза" она уже выучила, а вот название улицы и номер дома, где живет, - еще нет...
Доп. информация: Фильм перешел в общественное достояние.
Сценарий: Агния Барто, Рина Зелёная
Оператор: Семён Шейнин
Художник: Василий Комарденков
Композитор: Николай Крюков
Ограничения на просмотр: для любой зрительской аудитории
Интересные факты">

Афиши Интересные факты

  • В годы Великой Отечественной войны негатив фильма погиб во время бомбардировок. В Госфильмофонде СССР сохранилась позитивная копия, которая в конце 1950-х годов подверглась небольшим купюрам. В 1988 году фильм отреставрировали и снова выпустили в прокат. Некоторые сцены и музыка были переозвучены, кадры с памятником Сталину на ВСХВ удалены, а общее качество звука оказалось невысоким даже по сравнению с оригиналом 1939 года. Для колоризации, выполненной в 2010 году, был выбран частично переозвученный вариант 1988 года с новыми титрами и купюрами.
  • Никто из детей, сыгравших в фильме, в кино более не снимался. Вероника Лебедева, сыгравшая Наташу, после замужества сменила фамилию на Синицына и в 1970-е годы работала редактором и рецензентом в ряде московских издательств, затем преподавала английский язык; в настоящее время на пенсии, проживает в Москве. Дмитрий Глухов (Юра) умер в 2006 году. Судьба Элины Быковской (Нина) неизвестна. По некоторым данным, во время войны 15-летняя Элина была вывезена из Москвы на эвакопоезде. Однако, состав попал под бомбёжку. По одной версии, Элина погибла при этой бомбёжке. По другой версии, Элина попала в партизанский отряд и погибла в одном из боёв.
  • В 2010 году состоялся показ колоризованных версий трёх классических советских комедий — «Волга-Волга», «Весёлые ребята» и «Подкидыш». Работы по колоризации были проведены в Лос-Анджелесе по заказу Первого телеканала.
  • В эпизодах, где Наташа подходит к продавцу воздушных шаров и знакомится с детьми из детского садика, можно увидеть панораму Чистых прудов, в других сценах показаны улица Горького, начало Ленинского проспекта (который тогда назывался Большой Калужской улицей), ВСХВ и Большая Ростокинская (ныне - ВВЦ и проспект Мира), Манежная площадь, угол Моховой и Коминтерна (Воздвиженки). В кадрах фильма можно увидеть весь московский транспорт довоенных лет — автомобили ГАЗ-М1, ЗиС-101, ГАЗ-АА, автобусы ЗИС-8 и ЗИС-16, двухэтажный троллейбус ЯТБ-3, трамвайный вагон БФ, а также вестибюль метро «Площадь Свердлова» («Театральная»).
  • Холостяк-геолог (Ростислав Плятт) кормит Наташу маринованными огурцами и консервами из крабов, которые в 1930-е годы были весьма популярным продуктом питания и не считались деликатесом.
  • В эпизоде со встречей футбольной команды снимались настоящие футболисты московского «Спартака» — Андрей Старостин и Станислав Леута.
  • В роли мальчика, который хочет быть «танкистом, доктором, а по выходным дням — пожарной машиной», снялся будущий литературовед Лев Аннинский.

Чтобы помнили...

Редакционным советом английской энциклопедии «Кто есть кто» («Who is who») она включена в десятку самых выдающихся актрис ХХ века, не сыграв при этом в кино ни одной главной роли. Королева эпизода, из незначительных, проходных сценок делавшая шедевры. Вот и с "Подкидышем" - четвертым фильмом в кинокарьере Фаины Георгиевны Раневской - произошло ровно то же самое. Второстепенная роль - и всесоюзная известность, мальчишки, бегающие за ней по улице с воплями: "Муля, не нервируй меня!.." Эту фразу придумала сама Раневская. А потом всю жизнь буквально ненавидела роль, принесшую ей такую популярность...

О звуке

Обе звуковые дорожки представляют собой отреставрированный и частично переозвученный вариант 1988 года. Обычно переозвучание мне не очень нравится, однако, в данном случае, исключительно на мой, очень личный, слух, всё выполнено достаточно качественно. Тем более, что хорошо знакомые голоса любимых актеров - Фаины Раневской, Ростислава Плятта, Рины Зелёной - остались неизмененными.
Бонусы: нет
Меню: есть, анимированное, озвученное
Тип релиза: DVD5 (3.71 GB, цветной) + DVD5 (3.63 GB, чёрно-белый)
Контейнер: DVD-Video
Видео:
Disc 1 - PAL 4:3 (720x576), 25 fps, VBR, 6029 kbps - цветной
Disc 2 - PAL 4:3 (720x576), 25 fps, VBR, 6221 kbps - чёрно-белый
Аудио: Russian (48 kHz, Dolby AC3, 6 ch, 384 kbps); Russian (48 kHz, Dolby AC3, 2 ch, 192 kbps) - на каждом из дисков
Субтитры: нет

MIDisc 1 (цветной)

Полное имя : \Podkidysh\Disc 1\VIDEO_TS\VTS_03_1.VOB
Формат : MPEG-PS
Размер файла : 1024 Мбайт
Продолжительность : 21 м.
Режим общего битрейта : Переменный
Общий поток : 6739 Кбит/сек
Видео
Идентификатор : 224 (0xE0)
Формат : MPEG Video
Версия формата : Version 2
Профиль формата : Main@Main
Параметр BVOP формата : Да
Параметр матрицы формата : Выборочная
Параметр GOP формата : Variable
Продолжительность : 21 м.
Вид битрейта : Переменный
Битрейт : 6029 Кбит/сек
Максимальный битрейт : 9800 Кбит/сек
Ширина : 720 пикселей
Высота : 576 пикселей
Соотношение сторон : 4:3
Частота кадров : 25,000 кадров/сек
Стандарт вещания : PAL
Цветовое пространство : YUV
Субдискретизация насыщенности : 4:2:0
Битовая глубина : 8 бит
Тип развёртки : Чересстрочная
Порядок развёртки : Нижнее поле первое
Метод сжатия : С потерями
Бит/(Пиксели*Кадры) : 0.581
Размер потока : 916 Мбайт (89%)
Аудио #1
Идентификатор : 189 (0xBD)-128 (0x80)
Формат : AC-3
Формат/Информация : Audio Coding 3
Расширение режима : CM (complete main)
Параметр Endianness формата : Big
Режим смешивания : DVD-Video
Продолжительность : 21 м.
Вид битрейта : Постоянный
Битрейт : 384 Кбит/сек
Каналы : 6 каналов
Расположение каналов : Front: L C R, Side: L R, LFE
Частота : 48,0 КГц
Битовая глубина : 16 бит
Метод сжатия : С потерями
Размер потока : 58,3 Мбайт (6%)
Аудио #2
Идентификатор : 189 (0xBD)-129 (0x81)
Формат : AC-3
Формат/Информация : Audio Coding 3
Расширение режима : CM (complete main)
Параметр Endianness формата : Big
Режим смешивания : DVD-Video
Продолжительность : 21 м.
Вид битрейта : Постоянный
Битрейт : 192 Кбит/сек
Каналы : 2 канала
Расположение каналов : Front: L R
Частота : 48,0 КГц
Битовая глубина : 16 бит
Метод сжатия : С потерями
Размер потока : 29,2 Мбайт (3%)

Disc 2 (чёрно-белый)

Полное имя : \Podkidysh\Disc 2\VIDEO_TS\VTS_03_1.VOB
Формат : MPEG-PS
Размер файла : 1024 Мбайт
Продолжительность : 20 м.
Режим общего битрейта : Переменный
Общий поток : 6935 Кбит/сек
Видео
Идентификатор : 224 (0xE0)
Формат : MPEG Video
Версия формата : Version 2
Профиль формата : Main@Main
Параметр BVOP формата : Да
Параметр матрицы формата : Выборочная
Параметр GOP формата : Variable
Продолжительность : 20 м.
Вид битрейта : Переменный
Битрейт : 6221 Кбит/сек
Максимальный битрейт : 9800 Кбит/сек
Ширина : 720 пикселей
Высота : 576 пикселей
Соотношение сторон : 4:3
Частота кадров : 25,000 кадров/сек
Стандарт вещания : PAL
Цветовое пространство : YUV
Субдискретизация насыщенности : 4:2:0
Битовая глубина : 8 бит
Тип развёртки : Чересстрочная
Порядок развёртки : Нижнее поле первое
Метод сжатия : С потерями
Бит/(Пиксели*Кадры) : 0.600
Размер потока : 918 Мбайт (90%)
Аудио #1
Идентификатор : 189 (0xBD)-128 (0x80)
Формат : AC-3
Формат/Информация : Audio Coding 3
Расширение режима : CM (complete main)
Параметр Endianness формата : Big
Режим смешивания : DVD-Video
Продолжительность : 20 м.
Вид битрейта : Постоянный
Битрейт : 384 Кбит/сек
Каналы : 6 каналов
Расположение каналов : Front: L C R, Side: L R, LFE
Частота : 48,0 КГц
Битовая глубина : 16 бит
Метод сжатия : С потерями
Размер потока : 56,7 Мбайт (6%)
Аудио #2
Идентификатор : 189 (0xBD)-129 (0x81)
Формат : AC-3
Формат/Информация : Audio Coding 3
Расширение режима : CM (complete main)
Параметр Endianness формата : Big
Режим смешивания : DVD-Video
Продолжительность : 20 м.
Вид битрейта : Постоянный
Битрейт : 192 Кбит/сек
Каналы : 2 канала
Расположение каналов : Front: L R
Частота : 48,0 КГц
Битовая глубина : 16 бит
Метод сжатия : С потерями
Размер потока : 28,3 Мбайт (3%)

DVDInfoDisc 1 (цветной)

Title:
Size: 3.71 Gb ( 3 891 674 KBytes ) - DVD-5
Enabled regions: 1, 2, 3, 4, 5, 6, 7, 8
VTS_01 :
Play Length: 00:00:03
Video: PAL 4:3 (720x576) VBR
Audio:
Russian (Dolby AC3, 2 ch)
Russian (Dolby AC3, 2 ch)
Russian (Dolby AC3, 2 ch)
VTS_02 :
Play Length: 00:00:02
Video: PAL 4:3 (720x576) VBR
Audio:
Russian (Dolby AC3, 2 ch)
Russian (Dolby AC3, 2 ch)
Russian (Dolby AC3, 2 ch)
VTS_03 :
Play Length: 01:10:03
Video: PAL 4:3 (720x576) VBR
Audio:
Russian (Dolby AC3, 6 ch)
Russian (Dolby AC3, 2 ch)
Menu Video:
PAL 4:3 (720x576) VBR
Menu Subtitles:
Not specified
Menu English Language Unit :
Root Menu
Audio Menu
Chapter (PTT) Menu

Disc 2 (чёрно-белый)

Title:
Size: 3.64 Gb ( 3 815 144 KBytes ) - DVD-5
Enabled regions: 1, 2, 3, 4, 5, 6, 7, 8
VTS_01 :
Play Length: 00:00:03
Video: PAL 4:3 (720x576) VBR
Audio:
Russian (Dolby AC3, 2 ch)
Russian (Dolby AC3, 2 ch)
Russian (Dolby AC3, 2 ch)
VTS_02 :
Play Length: 00:00:02
Video: PAL 4:3 (720x576) VBR
Audio:
Russian (Dolby AC3, 2 ch)
Russian (Dolby AC3, 2 ch)
Russian (Dolby AC3, 2 ch)
VTS_03 :
Play Length: 01:10:03
Video: PAL 4:3 (720x576) VBR
Audio:
Russian (Dolby AC3, 6 ch)
Russian (Dolby AC3, 2 ch)
Menu Video:
PAL 4:3 (720x576) VBR
Menu Subtitles:
Not specified
Menu English Language Unit :
Root Menu
Audio Menu
Chapter (PTT) Menu

Сканы обложки и дисков

Скриншоты меню

[Профиль] [ЛС]
Показать сообщения:    

Текущее время: Сегодня 00:12

Часовой пояс: GMT



Вы не можете начинать темы
Вы не можете отвечать на сообщения
Вы не можете редактировать свои сообщения
Вы не можете удалять свои сообщения
Вы не можете голосовать в опросах
Вы не можете прикреплять файлы к сообщениям
Вы не можете скачивать файлы