Подземелье / Underground (2011) BDRip 720p | L1

 
Автор Сообщение

BOSS ®

Пол:

Стаж: 3 года 2 месяца

Сообщений: 8560

Откуда: ODESSA



Награды: 22 (Подробнее)

Top Keeper 2 (Количество: 1) Mega Releaser 2 (Количество: 1) За внесенный вклад в развитие сайта (Количество: 1)
Торрент-статистика

Создавать темы 28-Июл-2017 18:39

[Цитировать]

Информация о фильме
Название: Подземелье
Оригинальное название: Underground
Год выхода: 2011
Жанр: ужасы, триллер
Режиссер: Рафаэль Айзенман
В ролях: Росс Томас, София Пернас, Кристин Евангелиста, Адриан Р’Манте, Инбар Лави, Джефф Д’Агостино, Меган Хенсли, Дженна Хьюз
Описание: На одной из секретных баз военные учёные экспериментировали с биологическим оружием. Что-то, как водится, пошло не так, и на свободу вырвалась стая озверелых мутантов, которую не смог одолеть даже специально вызванный отряд спецназа.
Прошло два года, об инциденте забыли, а на месте базы организовали масштабную дискотеку. Сцепившись на танцполе с бандитами, группа молодёжи пустилась от них наутёк и оказалась загнанной в подземные туннели, где всё ещё обитали злобные твари.

Страна: США
Продолжительность: 01:26:42
Перевод: Любительский (одноголосый, закадровый) R1shpil
Субтитры: нет
Оригинальная аудиодорожка: английский
Файл
Качество: BDRip 720p
Видео: MPEG-4 AVC, 1280x528, 4427 kbps, 23.976 fps
Аудио 1: 48 kHz, AC3 Dolby Digital, 2/0 (L,R) ch, 192 kbps | R1shpil
Аудио 2: 48 кГц, DTS, 3/2 (L,C,R,l,r) + LFE ch, 1510 kbps | Original

Скриншоты

MediaInfo

Формат : Matroska
Версия формата : Version 2
Размер файла : 3,71 Гбайт
Продолжительность : 1 ч. 26 м.
Общий поток : 6128 Кбит/сек
Дата кодирования : UTC 2012-02-03 09:44:39
Программа кодирования : mkvmerge v5.0.1 ('Es ist Sommer') built on Oct 9 2011 11:55:43
Библиотека кодирования : libebml v1.2.2 + libmatroska v1.3.0
Видео
Идентификатор : 1
Формат : AVC
Формат/Информация : Advanced Video Codec
Профиль формата : High@L4.1
Параметр CABAC формата : Да
Параметр ReFrames формата : 4 кадра
Идентификатор кодека : V_MPEG4/ISO/AVC
Продолжительность : 1 ч. 26 м.
Битрейт : 4427 Кбит/сек
Ширина : 1280 пикс.
Высота : 528 пикс.
Соотношение сторон : 2,40:1
Частота кадров : 23,976 кадр/сек
Цветовое пространство : YUV
Подвыборка цветности : 4:2:0
Битовая глубина : 8 бит
Тип развёртки : Прогрессивная
Бит/(Пиксели*Кадры) : 0.273
Размер потока : 2,61 Гбайт (70%)
Библиотека кодирования : x264 core 116 r2074 2641b9e
Настройки программы : cabac=1 / ref=5 / deblock=1:-1:-1 / analyse=0x3:0x133 / me=umh / subme=8 / psy=1 / psy_rd=1.00:0.15 / mixed_ref=1 / me_range=24 / chroma_me=1 / trellis=2 / 8x8dct=1 / cqm=0 / deadzone=21,11 / fast_pskip=1 / chroma_qp_offset=-3 / threads=6 / sliced_threads=0 / nr=0 / decimate=1 / interlaced=0 / bluray_compat=0 / constrained_intra=0 / bframes=3 / b_pyramid=2 / b_adapt=2 / b_bias=0 / direct=3 / weightb=1 / open_gop=0 / weightp=1 / keyint=250 / keyint_min=23 / scenecut=40 / intra_refresh=0 / rc_lookahead=30 / rc=2pass / mbtree=1 / bitrate=4427 / ratetol=1.0 / qcomp=0.60 / qpmin=0 / qpmax=69 / qpstep=4 / cplxblur=20.0 / qblur=0.5 / ip_ratio=1.40 / aq=1:1.00
Язык : English
Аудио #1
Идентификатор : 2
Формат : AC-3
Формат/Информация : Audio Coding 3
Расширение режима : CM (complete main)
Идентификатор кодека : A_AC3
Продолжительность : 1 ч. 26 м.
Вид битрейта : Постоянный
Битрейт : 192 Кбит/сек
Каналы : 2 канала
Расположение каналов : Front: L R
Частота : 48,0 КГц
Битовая глубина : 16 бит
Метод сжатия : С потерями
Размер потока : 119 Мбайт (3%)
Заголовок : AVO R1shpil
Язык : Russian
Аудио #2
Идентификатор : 3
Формат : DTS
Формат/Информация : Digital Theater Systems
Идентификатор кодека : A_DTS
Продолжительность : 1 ч. 26 м.
Вид битрейта : Постоянный
Битрейт : 1510 Кбит/сек
Каналы : 6 каналов
Расположение каналов : Front: L C R, Side: L R, LFE
Частота : 48,0 КГц
Битовая глубина : 16 бит
Метод сжатия : С потерями
Размер потока : 936 Мбайт (25%)
Язык : English
Меню
00:00:00.000 : en:Chapter 01
00:07:59.937 : en:Chapter 02
00:15:59.959 : en:Chapter 03
00:23:59.938 : en:Chapter 04
00:31:59.959 : en:Chapter 05
00:39:59.980 : en:Chapter 06
00:47:59.918 : en:Chapter 07
00:55:59.898 : en:Chapter 08
01:03:59.919 : en:Chapter 09
01:11:59.940 : en:Chapter 10
01:17:59.883 : en:Chapter 11
01:21:59.915 : en:Chapter 12
01:26:41.779 : en:Chapter 13
[Профиль] [ЛС]
Кто просматривает тему:

Форум Тема Автор Размер
BBC BBC: Мир природы. Секреты подземелий майя / Natural World. Secrets of the Maya Underworld (Тим Мартин) [2005 г., Документальный, природа, флора, фауна, HDTVRip-AVC 720p] skorpionN 1.49 GB
Секреты / Тайны Discovery: Секреты подземелья / Secrets of the Underground [сезон 1 серии 1-7 из 8] (William Morgan) [2017 г., Документальный, археология, история, исследования, DVB] skorpionN 7.39 GB
Viasat Nature Viasat Nature: Подземный мир саванны / Six Feet under the Savannah (Стефан Дюфрене /Stephan Dufrenet) [2013, Документальный, природа, флора, фауна, HDTVRip 720p] TorrentFilm 1.84 GB
Разная литература Вадим Бурлак - Москва подземная (2016) FB2 достали все 965 KB
Фильмы 2011 года Во имя короля: История осады подземелья / In the Name of the King: A Dungeon Siege Tale (2007) BDRip Russian Mafia 2.59 GB
Фильмы 2011 года Во имя короля: История осады подземелья / In the Name of the King: A Dungeon Siege Tale (2007) HDRip-AVC | D Russian Mafia 1.45 GB
Фильмы 2006-2008 года Во имя короля: История осады подземелья / In the Name of the King: A Dungeon Siege Tale (Уве Болл) [2007 г., фэнтези, боевик, триллер, приключения, HDRip-AVC] [DUB] Bathory 746 MB
Фильмы (HD DVD, Blu-ray и BDRemux) Дрожь земли (Подземные толчки) / Tremors (Рон Андервуд) [1990 г., Ужасы, фантастика,] Blu-Ray (1080) Magnat 34.12 GB
Показать сообщения:    

Текущее время: Сегодня 13:11

Часовой пояс: GMT



Вы не можете начинать темы
Вы не можете отвечать на сообщения
Вы не можете редактировать свои сообщения
Вы не можете удалять свои сообщения
Вы не можете голосовать в опросах
Вы не можете прикреплять файлы к сообщениям
Вы не можете скачивать файлы