Подземелье мертвых / Мертвая шахта / Dead Mine (2012) BDRip 720p от ExKinoRay | P

 
Автор Сообщение

sergej644 ®

Пол:

Стаж: 4 года 11 месяцев

Сообщений: 6043

Откуда: Soviet Union



Награды: Нет

Торрент-статистика

Создавать темы 08-Фев-2015 20:57

[Цитировать]

Информация о фильме
Название: Подземелье мертвых (Мертвая шахта)
Оригинальное название: Dead Mine
Год выхода: 2012
Жанр: Ужасы, боевик
Режиссер: Стивен Шейл
В ролях: Арио Баю, Андре, Асеп, Буди, Чарли, Рустам Эффенди, Хасан, Сэм Хэзелдайн
О фильме:
Легенда о Золоте Ямашиты соблазняет охотника за сокровищами Воррена Прайса отправиться вместе со своей группой глубоко в индонезийские джунгли. Оказавшись в ловушке заброшенного японского бункера времен Второй мировой войны, искатели приключений сразу же сталкиваются с его ужасными обитателями, и теперь их единственная надежда на спасене — шаг за шагом двигаться дальше.

Страна: Индонезия
Студия: Infinite Frameworks Studios
Продолжительность: 01:31:28
Перевод: Профессиональный многоголосый
Файл
Кодек: AVC, H.264
Качество: BDRip 720p
Видео: MPEG-4 AVC, 5334 Кбит/с, 1280x544
Аудио №1 48 kHz, AC3 Dolby Digital, 3/2 (L,C,R,l,r) + LFE ch, ~448 kbps (RUS)
Аудио №1 48 kHz, DTS, 3/2 (L,C,R,l,r) + LFE ch, ~1 509 kbps avg (ENG)
Субтитры: Aнглийские
Релиз от:

Инфо-файл

General
Complete name : Dead.Mine.2012.BDRip.720p.ExKinoRay.mkv
Format : Matroska
Format version : Version 2
File size : 4.63 GiB
Duration : 1h 31mn
Overall bit rate : 7 239 Kbps
Encoded date : UTC 2014-09-23 13:53:50
Writing application : mkvmerge v5.8.0 ('No Sleep / Pillow') built on Sep 2 2012 15:37:04
Writing library : libebml v1.2.3 + libmatroska v1.3.0
Video
ID : 1
Format : AVC
Format/Info : Advanced Video Codec
Format profile : High@L4.1
Format settings, CABAC : Yes
Format settings, ReFrames : 11 frames
Codec ID : V_MPEG4/ISO/AVC
Duration : 1h 31mn
Bit rate : 5 334 Kbps
Width : 1 280 pixels
Height : 544 pixels
Display aspect ratio : 2.35:1
Frame rate mode : Constant
Frame rate : 23.976 fps
Color space : YUV
Chroma subsampling : 4:2:0
Bit depth : 8 bits
Scan type : Progressive
Bits/(Pixel*Frame) : 0.319
Stream size : 3.28 GiB (71%)
Writing library : x264 core 128 r2216 198a7ea
Encoding settings : cabac=1 / ref=11 / deblock=1:-3:-3 / analyse=0x3:0x133 / me=umh / subme=10 / psy=1 / psy_rd=1.00:0.00 / mixed_ref=1 / me_range=32 / chroma_me=1 / trellis=2 / 8x8dct=1 / cqm=0 / deadzone=21,11 / fast_pskip=1 / chroma_qp_offset=-2 / threads=12 / lookahead_threads=2 / sliced_threads=0 / nr=0 / decimate=0 / interlaced=0 / bluray_compat=0 / constrained_intra=0 / bframes=7 / b_pyramid=2 / b_adapt=2 / b_bias=0 / direct=3 / weightb=1 / open_gop=0 / weightp=2 / keyint=250 / keyint_min=23 / scenecut=40 / intra_refresh=0 / rc_lookahead=80 / rc=2pass / mbtree=1 / bitrate=5334 / ratetol=1.0 / qcomp=0.60 / qpmin=0 / qpmax=69 / qpstep=4 / cplxblur=20.0 / qblur=0.5 / vbv_maxrate=30000 / vbv_bufsize=30000 / nal_hrd=none / ip_ratio=1.20 / aq=1:1.00
Language : English
Default : Yes
Forced : Yes
Audio #1
ID : 2
Format : AC-3
Format/Info : Audio Coding 3
Mode extension : CM (complete main)
Format settings, Endianness : Big
Codec ID : A_AC3
Duration : 1h 31mn
Bit rate mode : Constant
Bit rate : 448 Kbps
Channel(s) : 6 channels
Channel positions : Front: L C R, Side: L R, LFE
Sampling rate : 48.0 KHz
Bit depth : 16 bits
Compression mode : Lossy
Stream size : 293 MiB (6%)
Language : Russian
Default : Yes
Forced : Yes
Audio #2
ID : 3
Format : DTS
Format/Info : Digital Theater Systems
Mode : 16
Format settings, Endianness : Big
Codec ID : A_DTS
Duration : 1h 31mn
Bit rate mode : Constant
Bit rate : 1 509 Kbps
Channel(s) : 6 channels
Channel positions : Front: L C R, Side: L R, LFE
Sampling rate : 48.0 KHz
Bit depth : 24 bits
Compression mode : Lossy
Stream size : 987 MiB (21%)
Language : English
Default : No
Forced : No
Text
ID : 4
Format : UTF-8
Codec ID : S_TEXT/UTF8
Codec ID/Info : UTF-8 Plain Text
Language : English
Default : No
Forced : No
Menu
00:00:00.000 : en:
00:08:22.710 : en:
00:15:59.875 : en:
00:23:13.183 : en:
00:30:38.628 : en:
00:39:33.329 : en:
00:47:58.000 : en:
00:53:21.907 : en:
01:00:04.100 : en:
01:08:56.757 : en:
01:18:43.677 : en:
01:28:30.096 : en:

Скриншоты


[Профиль] [ЛС]
Кто просматривает тему:

Форум Тема Автор Размер
BBC BBC: Мир природы. Секреты подземелий майя / Natural World. Secrets of the Maya Underworld (Тим Мартин) [2005 г., Документальный, природа, флора, фауна, HDTVRip-AVC 720p] skorpionN 1.49 GB
Viasat Nature Viasat Nature: Подземный мир саванны / Six Feet under the Savannah (Стефан Дюфрене /Stephan Dufrenet) [2013, Документальный, природа, флора, фауна, HDTVRip 720p] TorrentFilm 1.84 GB
Разная литература Вадим Бурлак - Москва подземная (2016) FB2 достали все 965 KB
Фильмы 2011 года Во имя короля: История осады подземелья / In the Name of the King: A Dungeon Siege Tale (2007) BDRip Russian Mafia 2.59 GB
Фильмы 2011 года Во имя короля: История осады подземелья / In the Name of the King: A Dungeon Siege Tale (2007) HDRip-AVC | D Russian Mafia 1.45 GB
Фильмы (HD DVD, Blu-ray и BDRemux) Дрожь земли (Подземные толчки) / Tremors (Рон Андервуд) [1990 г., Ужасы, фантастика,] Blu-Ray (1080) Magnat 34.12 GB
Документальные HD Одесса: Герои Подземной Крепости (Артур Богатов) [2015, Документальный, HDTV 720p] TorrentFilm 1.28 GB
Фантастика и фэнтези Подземелье ведьм (Булычёв Кир) [2015, Фантастика, аудиокнига, MP3, 96 kbps, Панфилова Марина] Magnat 162 MB
Показать сообщения:    

Текущее время: Сегодня 12:48

Часовой пояс: GMT



Вы не можете начинать темы
Вы не можете отвечать на сообщения
Вы не можете редактировать свои сообщения
Вы не можете удалять свои сообщения
Вы не можете голосовать в опросах
Вы не можете прикреплять файлы к сообщениям
Вы не можете скачивать файлы