Поддубный (2014) BDRip [576p] iPad

 
Автор Сообщение

sergej644 ®

Пол:

Стаж: 4 года 11 месяцев

Сообщений: 6045

Откуда: Soviet Union



Награды: Нет

Торрент-статистика

Создавать темы 24-Авг-2014 10:57

[Цитировать]

-Поддубный (2014) BDRip [576p] iPad
«Чемпион чемпионов»
- Год выпуска: 2014
Производство: Россия
Жанр: Драма, спорт, биография
Продолжительность: 01:57:41
Перевод: Не требуется
Оригинальная аудиодорожка: Есть
Режиссер: Глеб Орлов
Сценарий: Юрий Коротков
Продюсер: Вадим Горяинов, Леонид Верещагин, Леонид Лебедев
Оператор: Владислав Опельянц
Композитор: Юрий Потеенко
Художник: Григорий Пушкин, Наталья Дзюбенко, Алёна Вайнштейн
Актеры: Михаил Пореченков, Дени Лаван, Владимир Ильин, Юрий Колокольников, Роман Мадянов, Александр Михайлов, Катерина Шпица, Максим Сапрыкин, Петр Крылов, Андрей Дебрин
Бюджет: $12 000 000
Сборы в России: $6 175 475
Мировая премьера: 10 июля 2014
Премьера (РФ): 10 июля 2014, «Централ Партнершип»
Релиз на DVD: 26 августа 2014, «Lizard Cinema Trade»
Релиз на Blu-Ray: 26 августа 2014, «Lizard Cinema Trade»

Описание: Его называли Чемпион чемпионов. О силе и волевом характере Поддубного слагали легенды. И в 50 великий борец играючи одолевал молодых атлетов, а вопросах чести и справедливости не знал компромиссов. И лишь любовь смогла уложить Русского Богатыря на обе лопатки…-Качество исходника: BDRemux
Качество: BDRip
Тип: SD (576p)
Контейнер: M4V
Видео: H.264, 1024x432, 2.40:1, 2 200 Kbps, 23.976 fps
Аудио: Русский/Оригинальная дорожка , AAC / 2.0 / 136 Kbps / 48.0 KHz
-

iTunes Meta Tags

Media Type: Movie
Sort Name: Поддубный
XID: Apple:vendor_id:2014-653695
Content ID: 899200966
Copyright: © 2012 Красная стрела, Студия Тритэ
ScreenWriters: Юрий Коротков
Producers: Вадим Горяинов, Леонид Верещагин, Леонид Лебедев
Director: Глеб Орлов
Cast: Михаил Пореченков, Дени Лаван, Владимир Ильин, Юрий Колокольников, Роман Мадянов, Александр Михайлов, Катерина Шпица, Максим Сапрыкин, Петр Крылов, Андрей Дебрин
Rating: 6+
Long Description: Его называли Чемпион чемпионов. О силе и волевом характере Поддубного слагали легенды. И в 50 великий борец играючи одолевал молодых атлетов, а вопросах чести и справедливости не знал компромиссов. И лишь любовь смогла уложить Русского Богатыря на обе лопатки...
Description: Его называли Чемпион чемпионов. О силе и волевом характере Поддубного слагали легенды.
Release Date: 2014-07-10T08:00:00Z
Genre: Russian
Artist: Глеб Орлов
Name: Поддубный

MI

General
Complete name                            : C:\\Handbrake\\Poddubnyi.(SD).(pk)..m4v
Format                                   : MPEG-4
Codec ID                                 : M4V
File size                                : 1.92 GiB
Duration                                 : 1h 57mn
Overall bit rate mode                    : Variable
Overall bit rate                         : 2 337 Kbps
Movie name                               : Поддубный
Performer                                : Глеб Орлов
Genre                                    : Russian
ContentType                              : Short Film
Description                              : Его называли Чемпион чемпионов. О силе и волевом характере Поддубного слагали легенды.
Recorded date                            : UTC 2014-07-10 08:00:00
Encoded date                             : UTC 2014-08-23 08:42:06
Tagged date                              : UTC 2014-08-23 08:45:06
Writing application                      : MkvToMp4 [www.mkvtomp4.ru] version: 0.224 (x64)
Copyright                                : © 2012 Красная стрела, Студия Тритэ
Service name                             : AOL
Cover                                    : Yes
Title/Sort                               : Поддубный
LongDescription                          : Его называли Чемпион чемпионов. О силе и волевом характере Поддубного слагали легенды. И в 50 великий борец играючи одолевал молодых атлетов, а вопросах чести и справедливости не знал компромиссов. И лишь любовь смогла уложить Русского Богатыря на обе лопатки...
AppleStoreAccountType                    : AOL
AppleStoreCountry                        : Unknown Country
AppleStoreCatalogID                      : 899200966
Vendor                                   : Apple:vendor_id:2014-653695
ContentRating                            : ru-movie|6+|150|
iTunMOVI                                 :  /  /  /   /   cast /    /     /     name /     Михаил Пореченков /     /     /     name /     Дени Лаван /     /     /     name /     Владимир Ильин /     /     /     name /     Юрий Колокольников /     /     /     name /     Роман Мадянов /     /     /     name /     Александр Михайлов /     /     /     name /     Катерина Шпица /     /     /     name /     Максим Сапрыкин /     /     /     name /     Петр Крылов /     /     /     name /     Андрей Дебрин /     /    /   directors /    /     /     name /     Глеб Орлов /     /    /   producers /    /     /     name /     Вадим Горяинов /     /     /     name /     Леонид Верещагин /     /     /     name /     Леонид Лебедев /     /    /   screenwriters /    /     /     name /     Юрий Коротков /     /    /   /
Video
ID                                       : 1
Format                                   : AVC
Format/Info                              : Advanced Video Codec
Format profile                           : [url=mailto:High@L3.1]High@L3.1[/url]
Format settings, CABAC                   : Yes
Format settings, ReFrames                : 9 frames
Codec ID                                 : avc1
Codec ID/Info                            : Advanced Video Coding
Duration                                 : 1h 57mn
Bit rate                                 : 2 200 Kbps
Maximum bit rate                         : 10.3 Mbps
Width                                    : 1 024 pixels
Height                                   : 432 pixels
Display aspect ratio                     : 2.40:1
Frame rate mode                          : Constant
Frame rate                               : 23.976 fps
Color space                              : YUV
Chroma subsampling                       : 4:2:0
Bit depth                                : 8 bits
Scan type                                : Progressive
Bits/(Pixel*Frame)                       : 0.207
Stream size                              : 1.81 GiB (94%)
Writing library                          : x264 core 130 r2273 b3065e6
Encoding settings                        : cabac=1 / ref=9 / deblock=1:0:0 / analyse=0x3:0x113 / me=umh / subme=9 / psy=1 / psy_rd=1.00:0.00 / mixed_ref=1 / me_range=32 / chroma_me=1 / trellis=1 / 8x8dct=1 / cqm=0 / deadzone=21,11 / fast_pskip=1 / chroma_qp_offset=-2 / threads=12 / lookahead_threads=1 / sliced_threads=0 / nr=0 / decimate=1 / interlaced=0 / bluray_compat=0 / constrained_intra=0 / bframes=6 / b_pyramid=2 / b_adapt=2 / b_bias=0 / direct=1 / weightb=1 / open_gop=0 / weightp=2 / keyint=240 / keyint_min=24 / scenecut=40 / intra_refresh=0 / rc_lookahead=40 / rc=2pass / mbtree=1 / bitrate=2200 / ratetol=1.0 / qcomp=0.60 / qpmin=0 / qpmax=69 / qpstep=4 / cplxblur=20.0 / qblur=0.5 / ip_ratio=1.40 / aq=1:1.00
Language                                 : English
Encoded date                             : UTC 2014-08-23 08:42:06
Tagged date                              : UTC 2014-08-23 08:44:50
Color primaries                          : BT.709
Transfer characteristics                 : BT.709
Matrix coefficients                      : BT.709
Audio
ID                                       : 2
Format                                   : AAC
Format/Info                              : Advanced Audio Codec
Format profile                           : LC
Codec ID                                 : 40
Duration                                 : 1h 57mn
Bit rate mode                            : Variable
Bit rate                                 : 136 Kbps
Maximum bit rate                         : 195 Kbps
Channel(s)                               : 2 channels
Channel positions                        : Front: L R
Sampling rate                            : 48.0 KHz
Compression mode                         : Lossy
Stream size                              : 114 MiB (6%)
Language                                 : Russian
Encoded date                             : UTC 2014-08-23 08:39:46
Tagged date                              : UTC 2014-08-23 08:44:50
Menu
ID                                       : 3
Codec ID                                 : text
Duration                                 : 1h 57mn
Encoded date                             : UTC 2014-08-23 08:45:03
Tagged date                              : UTC 2014-08-23 08:45:03
Bit rate mode                            : VBR

x264 лог

x264 [info]: frame I:1707  Avg QP:14.67  size: 97070  PSNR Mean Y:47.97 U:50.33 V:51.20 Avg:48.64 Global:48.29
x264 [info]: frame P:41282 Avg QP:17.49  size: 25105  PSNR Mean Y:45.79 U:49.25 V:51.50 Avg:46.67 Global:46.08
x264 [info]: frame B:126308 Avg QP:20.82  size:  5830  PSNR Mean Y:44.32 U:48.37 V:50.04 Avg:45.30 Global:44.75
x264 [info]: consecutive B-frames:  3.2%  3.2% 12.5% 28.3% 18.1% 30.9%  3.7%
x264 [info]: mb I  I16..4: 10.1% 58.6% 31.3%
x264 [info]: mb P  I16..4:  2.0%  9.1%  3.5%  P16..4: 34.1% 24.1% 16.5%  0.0%  0.0%    skip:10.7%
x264 [info]: mb B  I16..4:  0.2%  0.9%  0.4%  B16..8: 35.7%  9.2%  3.4%  direct: 3.9%  skip:46.2%  L0:40.6% L1:45.7% BI:13.7%
x264 [info]: 8x8 transform intra:61.2% inter:65.1%
x264 [info]: coded y,uvDC,uvAC intra: 82.8% 81.9% 56.0% inter: 24.1% 23.1% 3.9%
x264 [info]: i16 v,h,dc,p: 37% 15%  7% 41%
x264 [info]: i8 v,h,dc,ddl,ddr,vr,hd,vl,hu: 12%  9%  4%  9% 13% 14% 13% 12% 13%
x264 [info]: i4 v,h,dc,ddl,ddr,vr,hd,vl,hu: 12%  8%  3%  9% 15% 15% 13% 12% 13%
x264 [info]: i8c dc,h,v,p: 39% 23% 23% 15%
x264 [info]: Weighted P-Frames: Y:3.2% UV:1.5%
x264 [info]: ref P L0: 50.7% 13.3% 15.2%  5.5%  4.6%  3.6%  3.1%  1.9%  1.9%  0.3%  0.0%
x264 [info]: ref B L0: 80.1%  9.1%  4.4%  2.1%  1.7%  1.4%  0.8%  0.3%
x264 [info]: ref B L1: 93.1%  6.9%
x264 [info]: SSIM Mean Y:0.9845483 (18.110db)
x264 [info]: PSNR Mean Y:44.716 U:48.605 V:50.408 Avg:45.664 Global:45.062 kb/s:2196.25
Скриншоты:
-
--
[Профиль] [ЛС]
Показать сообщения:    

Текущее время: Сегодня 08:02

Часовой пояс: GMT



Вы не можете начинать темы
Вы не можете отвечать на сообщения
Вы не можете редактировать свои сообщения
Вы не можете удалять свои сообщения
Вы не можете голосовать в опросах
Вы не можете прикреплять файлы к сообщениям
Вы не можете скачивать файлы