Поддубный (Глеб Орлов) [2014, драма, спорт, биография, BDRemux] 1080i | лицензия

 
Автор Сообщение

sergej644 ®

Пол:

Стаж: 4 года 11 месяцев

Сообщений: 6046

Откуда: Soviet Union



Награды: Нет

Торрент-статистика

Создавать темы 22-Авг-2014 21:50

[Цитировать]

-«Чемпион чемпионов»
-Страна: Россия / Канал Россия, Красная стрела, Студия Тритэ
Жанр: драма, спорт, биография
Год выпуска: 2012
Продолжительность: 01:57:41
Перевод: Не требуется
Cубтитры: нет
Оригинальная аудиодорожка: русский
Режиссер: Глеб Орлов
В ролях: Михаил Пореченков, Дени Лаван, Владимир Ильин, Юрий Колокольников, Роман Мадянов, Александр Михайлов, Катерина Шпица, Максим Сапрыкин, Петр Крылов, Андрей Дебрин...
Описание: Его называли Чемпион чемпионов. О силе и волевом характере Поддубного слагали легенды. И в 50 великий борец играючи одолевал молодых атлетов, а в вопросах чести и справедливости не знал компромиссов. И лишь любовь смогла уложить Русского Богатыря на обе лопатки…

Качество: BDRemux 1080i / Blu-ray 1080i от «Lizard Cinema Trade»
Формат: MKV
Видео: 1920x1080, MPEG-4 AVC Video 18018 kbps 1080i / 25 fps / 16:9 / High Profile 4.1
Аудио 1: DTS Audio Russian 1509 kbps 5.1 / 48 kHz / 1509 kbps / 24-bit
Аудио 2: Dolby Digital Audio Russian 640 kbps 5.1 / 48 kHz / 640 kbps / DN -4dB
Аудио 3: Dolby Digital Audio Russian 192 kbps 2.0 / 48 kHz / 192 kbps / DN -4dB
Дополнительно: Фильм разбит на главы, как на оригинальном Blu-ray диске.
Раздача от:

MediaInfo

Общее
Полное имя                               : Poddubnyi.2012.O.BDRemux.1080i.mkv
Формат                                   : Matroska
Версия формата                           : Version 4 / Version 2
Размер файла                             : 16,7 Гбайт
Продолжительность                        : 1 ч. 57 м.
Режим общего битрейта                    : Переменный
Общий поток                              : 20,4 Мбит/сек
Дата кодирования                         : UTC 2014-08-22 13:05:02
Программа кодирования                    : mkvmerge v7.1.0 ('Good Love') 64bit built on Jul 27 2014 13:06:55
Библиотека кодирования                   : libebml v1.3.0 + libmatroska v1.4.1
DURATION                                 : 01:57:41.046000000
NUMBER_OF_FRAMES                         : 661973
NUMBER_OF_BYTES                          : 1332551649
_STATISTICS_WRITING_APP                  : mkvmerge v7.1.0 ('Good Love') 64bit built on Jul 27 2014 13:06:55
_STATISTICS_WRITING_DATE_UTC             : 2014-08-22 13:05:02
_STATISTICS_TAGS                         : BPS DURATION NUMBER_OF_FRAMES NUMBER_OF_BYTES
Видео
Идентификатор                            : 1
Формат                                   : AVC
Формат/Информация                        : Advanced Video Codec
Профиль формата                          : High@L4.1
Параметр CABAC формата                   : Да
Параметр ReFrames формата                : 4 кадра
Идентификатор кодека                     : V_MPEG4/ISO/AVC
Продолжительность                        : 1 ч. 57 м.
Вид битрейта                             : Переменный
Битрейт                                  : 17,6 Мбит/сек
Максимальный битрейт                     : 35,0 Мбит/сек
Ширина                                   : 1920 пикселей
Высота                                   : 1080 пикселей
Соотношение сторон                       : 16:9
Режим частоты кадров                     : Постоянный
Частота кадров                           : 25,000 кадров/сек
Стандарт вещания                         : PAL
Цветовое пространство                    : YUV
Субдискретизация насыщенности            : 4:2:0
Битовая глубина                          : 8 бит
Тип развёртки                            : Чересстрочная
Порядок развёртки                        : Верхнее поле первое
Бит/(Пиксели*Кадры)                      : 0.340
Размер потока                            : 14,5 Гбайт (87%)
Язык                                     : Russian
Default                                  : Да
Forced                                   : Нет
Основные цвета                           : BT.709
Характеристики трансфера                 : BT.709
Коэффициенты матрицы                     : BT.709
Аудио #1
Идентификатор                            : 2
Формат                                   : DTS
Формат/Информация                        : Digital Theater Systems
Режим                                    : 16
Параметр Endianness формата              : Big
Идентификатор кодека                     : A_DTS
Продолжительность                        : 1 ч. 57 м.
Вид битрейта                             : Постоянный
Битрейт                                  : 1510 Кбит/сек
Каналы                                   : 6 каналов
Расположение каналов                     : Front: L C R, Side: L R, LFE
Частота                                  : 48,0 КГц
Битовая глубина                          : 24 бит
Метод сжатия                             : С потерями
Размер потока                            : 1,24 Гбайт (7%)
Язык                                     : Russian
Default                                  : Да
Forced                                   : Нет
Аудио #2
Идентификатор                            : 3
Формат                                   : AC-3
Формат/Информация                        : Audio Coding 3
Расширение режима                        : CM (complete main)
Параметр Endianness формата              : Big
Идентификатор кодека                     : A_AC3
Продолжительность                        : 1 ч. 57 м.
Вид битрейта                             : Постоянный
Битрейт                                  : 640 Кбит/сек
Каналы                                   : 6 каналов
Расположение каналов                     : Front: L C R, Side: L R, LFE
Частота                                  : 48,0 КГц
Битовая глубина                          : 16 бит
Метод сжатия                             : С потерями
Размер потока                            : 539 Мбайт (3%)
Язык                                     : Russian
Default                                  : Нет
Forced                                   : Нет
Аудио #3
Идентификатор                            : 4
Формат                                   : AC-3
Формат/Информация                        : Audio Coding 3
Расширение режима                        : CM (complete main)
Параметр Endianness формата              : Big
Идентификатор кодека                     : A_AC3
Продолжительность                        : 1 ч. 57 м.
Вид битрейта                             : Постоянный
Битрейт                                  : 192 Кбит/сек
Каналы                                   : 2 канала
Расположение каналов                     : Front: L R
Частота                                  : 48,0 КГц
Битовая глубина                          : 16 бит
Метод сжатия                             : С потерями
Размер потока                            : 162 Мбайт (1%)
Язык                                     : Russian
Default                                  : Нет
Forced                                   : Нет
Меню
00:00:00.000                             : en:00:00:00.000
00:15:06.560                             : en:00:15:06.560
00:24:31.440                             : en:00:24:31.440
00:32:27.080                             : en:00:32:27.080
00:40:12.400                             : en:00:40:12.400
00:49:37.720                             : en:00:49:37.720
00:55:58.640                             : en:00:55:58.640
01:12:03.000                             : en:01:12:03.000
01:19:30.720                             : en:01:19:30.720
01:28:05.200                             : en:01:28:05.200
01:35:50.000                             : en:01:35:50.000
01:48:47.120                             : en:01:48:47.120

Скриншоты:

--
[Профиль] [ЛС]
Показать сообщения:    

Текущее время: Сегодня 15:40

Часовой пояс: GMT



Вы не можете начинать темы
Вы не можете отвечать на сообщения
Вы не можете редактировать свои сообщения
Вы не можете удалять свои сообщения
Вы не можете голосовать в опросах
Вы не можете прикреплять файлы к сообщениям
Вы не можете скачивать файлы