Подводный мир Косумель / BluScenes : Underwater Cozumel (Рэнди Трэвис / Randy Travis) [2010, Документальный, релакс, BDRip-AVC]

 
Автор Сообщение

reversefile ®

Пол:

Стаж: 4 года 5 месяцев

Сообщений: 842

Откуда: ReverseFile.org



Награды: Нет

Торрент-статистика

Создавать темы 11-Авг-2014 06:20

[Цитировать]

Подводный мир Косумель
BluScenes : Underwater Cozumel
- Год выпуска: 2010
Страна: США
Жанр: Документальный, релакс
Продолжительность: 01:11:25
Перевод: Не требуется
Русские субтитры: нет-Режиссер: Рэнди Трэвис / Randy Travis-Описание: Фильм из серии Bluscenes. Подводные съёмки кинематографиста-энтузиаста Рэнди Трэвиса перенесут вас на остров Косумель, известный своей богатейшей подводной жизнью. Подводный мир и видео высокой чёткости просто созданы друг для друга!Познакомьтесь с красочными рифовыми образованиями и экзотическими морскими животными Palancar Gardens, Santa Rosa Wall, Paradise Reef, Paso del Cedral...
Богатство и красота жизни подводного мира острова Косумель ждут вас!Видео сопровождается музыкой ambient Криса Мартина и Джеффа Харви, которая как нельзя лучше подходит для него...- -Качество: BDRip-AVC
Формат: MKV
Видео: MPEG-4 AVC, 1024x576 (16:9), 23.976 fps, ~2465 kbps avg, 0.17 bit/pixel
Аудио# 1: 48.0 kHz, AC3 Dolby Digital, 3/2 (L,C,R,l,r) + LFE ch, ~448.00 kbps avg / Nature & Music
Аудио# 2: 48.0 kHz, AC3 Dolby Digital, 3/2 (L,C,R,l,r) + LFE ch, ~448.00 kbps avg / Music
Аудио# 3: 48.0 kHz, AC3 Dolby Digital, 3/2 (L,C,R,l,r) + LFE ch, ~448.00 kbps avg / Nature Sounds

MediaInfo

ОбщееУникальный идентификатор : 182529711038325375615230271661527970667 (0x8951F19145511F109904BAA4FDD2B36B)Полное имя : A:\Фильмы\Podvodniy.mir.Kosumel.2010.x264.BDRip.(AVC).mkvФормат : MatroskaВерсия формата : Version 1Размер файла : 1,37 ГбайтПродолжительность : 51 м.Общий поток : 3812 Кбит/секДата кодирования : UTC 2012-12-06 15:27:53Программа кодирования : mkvmerge v2.1.0 ('Another Place To Fall') built on Aug 19 2007 13:40:07Библиотека кодирования : libebml v0.7.7 + libmatroska v0.8.1
ВидеоИдентификатор : 1Формат : AVCФормат/Информация : Advanced Video CodecПрофиль формата : High@L4.1Параметр CABAC формата : ДаПараметр ReFrames формата : 8 кадровИдентификатор кодека : V_MPEG4/ISO/AVCПродолжительность : 51 м.Битрейт : 2465 Кбит/секШирина : 1024 пикселяВысота : 576 пикселейСоотношение сторон : 16:9Режим частоты кадров : ПостоянныйЧастота кадров : 23,976 кадра/секЦветовое пространство : YUVСубдискретизация насыщенности : 4:2:0Битовая глубина : 8 битТип развёртки : ПрогрессивнаяБит/(Пиксели*Кадры) : 0.174Размер потока : 879 Мбайт (63%)Библиотека кодирования : x264 core 115 r1937 aa21558Настройки программы : cabac=1 / ref=8 / deblock=1:-2:-2 / analyse=0x3:0x113 / me=umh / subme=8 / psy=1 / psy_rd=1.00:0.10 / mixed_ref=0 / me_range=32 / chroma_me=1 / trellis=2 / 8x8dct=1 / cqm=0 / deadzone=21,11 / fast_pskip=1 / chroma_qp_offset=-3 / threads=6 / sliced_threads=0 / nr=0 / decimate=1 / interlaced=0 / bluray_compat=0 / constrained_intra=0 / bframes=8 / b_pyramid=2 / b_adapt=2 / b_bias=0 / direct=3 / weightb=1 / open_gop=0 / weightp=0 / keyint=250 / keyint_min=23 / scenecut=40 / intra_refresh=0 / rc_lookahead=30 / rc=2pass / mbtree=1 / bitrate=2465 / ratetol=1.0 / qcomp=0.60 / qpmin=15 / qpmax=47 / qpstep=3 / cplxblur=20.0 / qblur=0.5 / ip_ratio=1.40 / aq=1:1.10Язык : EnglishDefault : ДаForced : Нет
Аудио #1Идентификатор : 2Формат : AC-3Формат/Информация : Audio Coding 3Расширение режима : CM (complete main)Параметр Endianness формата : BigИдентификатор кодека : A_AC3Продолжительность : 51 м.Вид битрейта : ПостоянныйБитрейт : 448 Кбит/секКаналы : 6 каналовРасположение каналов : Front: L C R, Side: L R, LFEЧастота : 48,0 КГцБитовая глубина : 16 битМетод сжатия : С потерямиРазмер потока : 165 Мбайт (12%)Заголовок : Музыка (Nature & Music)Default : ДаForced : Нет
Аудио #2Идентификатор : 3Формат : AC-3Формат/Информация : Audio Coding 3Расширение режима : CM (complete main)Параметр Endianness формата : BigИдентификатор кодека : A_AC3Продолжительность : 51 м.Вид битрейта : ПостоянныйБитрейт : 448 Кбит/секКаналы : 6 каналовРасположение каналов : Front: L C R, Side: L R, LFEЧастота : 48,0 КГцБитовая глубина : 16 битМетод сжатия : С потерямиРазмер потока : 165 Мбайт (12%)Заголовок : Музыка (Music)Default : НетForced : Нет
Аудио #3Идентификатор : 4Формат : AC-3Формат/Информация : Audio Coding 3Расширение режима : CM (complete main)Параметр Endianness формата : BigИдентификатор кодека : A_AC3Продолжительность : 51 м.Вид битрейта : ПостоянныйБитрейт : 448 Кбит/секКаналы : 2 каналаРасположение каналов : Front: L RЧастота : 48,0 КГцБитовая глубина : 16 битМетод сжатия : С потерямиРазмер потока : 165 Мбайт (12%)Заголовок : Музыка (Nature Sounds)Default : НетForced : Нет

Скриншоты


[Профиль] [ЛС]
Показать сообщения:    

Текущее время: Сегодня 10:33

Часовой пояс: GMT



Вы не можете начинать темы
Вы не можете отвечать на сообщения
Вы не можете редактировать свои сообщения
Вы не можете удалять свои сообщения
Вы не можете голосовать в опросах
Вы не можете прикреплять файлы к сообщениям
Вы не можете скачивать файлы