Подводная лодка / Das Boot (1981) BDRip 1080p | P

 
Автор Сообщение

Russian Mafia ®

Пол:

Стаж: 1 год 8 месяцев

Сообщений: 4247



Награды: 10 (Подробнее)

Top Releaser 2 (Количество: 1) Top Releaser 4 (Количество: 1) За внесенный вклад в развитие сайта (Количество: 1)
Торрент-статистика

Создавать темы 16-Сен-2015 07:44

[Цитировать]

Информация о фильме
Название: Подводная лодка
Оригинальное название: Das Boot
Год выхода: 1981
Жанр: боевик, драма, военный, история
Режиссер: Вольфганг Петерсен
В ролях: Юрген Прохнов, Херберт Грёнемайер, Клаус Веннеманн, Хабертус Бенгш, Отто Зандер, Гюнтер Лампрехт, Мартин Май, Хайнц Хёниг, Уве Оксенкнехт, Клод-Оливер Рудольф
О фильме: Осень 1941 года. Немецкая подводная лодка отправляется в Атлантический океан, место противостояния германского и английского флотов. Жизнь по строгому распорядку, учебные тревоги, воспоминания о семьях и любимых девушках, соленые мужские шуточки… Скоро всё это закончится. Потому что впереди — ад и никакой надежды на спасение…


Страна: Германия (ФРГ)
Продолжительность: 03:28:21
Перевод: Профессиональный (многоголосый, закадровый)
Файл
Формат: MKV
Качество: BDRip 1080p
Видео: 1920x1080 at 25.000 fps, x264@L4.1, crf, ~16917 kbps avg
Аудио#1: Russian: 48 kHz, AC3, 3/2 (L,C,R,l,r) + LFE ch, ~384 kbps avg |Многоголосый закадровый, Синема Престиж|
Аудио#2: German: 48 kHz, DTS, 3/2 (L,C,R,l,r) + LFE ch, ~1509 kbps avg
Субтитры: Russian, English

Media Info

Общее
Уникальный идентификатор : 241671422205430416142399760162506268826 (0xB5D0390E31414E5980FD6A464501E09A)
Полное имя : F:Подводная лодка - Das Boot (1981) 1080p.mkv
Формат : Matroska
Версия формата : Version 4 / Version 2
Размер файла : 38,1 Гбайт
Продолжительность : 4 ч. 50 м.
Общий поток : 18,8 Мбит/сек
Название фильма : Das Boot (1981) - Release for HDCLUB by SbR
Дата кодирования : UTC 2015-03-12 09:07:13
Программа кодирования : mkvmerge v7.7.0 ('Six Voices') 64bit built on Feb 28 2015 23:39:33
Библиотека кодирования : libebml v1.3.1 + libmatroska v1.4.2
Attachements : cover.jpg / xlog.txt
Видео
Идентификатор : 1
Формат : AVC
Формат/Информация : Advanced Video Codec
Профиль формата : High@L4.1
Параметр CABAC формата : Да
Параметр ReFrames формата : 4 кадра
Идентификатор кодека : V_MPEG4/ISO/AVC
Продолжительность : 4 ч. 50 м.
Битрейт : 16,5 Мбит/сек
Ширина : 1920 пикселей
Высота : 1080 пикселей
Соотношение сторон : 16:9
Режим частоты кадров : Постоянный
Частота кадров : 25,000 кадров/сек
Цветовое пространство : YUV
Субдискретизация насыщенности : 4:2:0
Битовая глубина : 8 бит
Тип развёртки : Прогрессивная
Бит/(Пиксели*Кадры) : 0.319
Размер потока : 33,5 Гбайт (88%)
Заголовок : Release for HDCLUB
Библиотека кодирования : x264 core 144 r2525kMod 40bb568
Настройки программы : cabac=1 / ref=4 / deblock=1:-2:-2 / analyse=0x3:0x133 / me=umh / subme=11 / psy=1 / fade_compensate=0.00 / psy_rd=1.00:0.00 / mixed_ref=1 / me_range=32 / chroma_me=1 / trellis=2 / 8x8dct=1 / cqm=0 / deadzone=21,11 / fast_pskip=1 / chroma_qp_offset=-2 / threads=12 / lookahead_threads=2 / sliced_threads=0 / nr=0 / decimate=1 / interlaced=0 / bluray_compat=0 / constrained_intra=0 / fgo=0 / bframes=8 / b_pyramid=2 / b_adapt=2 / b_bias=0 / direct=1 / weightb=1 / open_gop=0 / weightp=2 / keyint=250 / keyint_min=25 / scenecut=40 / intra_refresh=0 / rc_lookahead=60 / rc=crf / mbtree=0 / crf=16.0000 / qcomp=0.60 / qpmin=0 / qpmax=69 / qpstep=4 / vbv_maxrate=62500 / vbv_bufsize=78125 / crf_max=0.0 / nal_hrd=none / filler=0 / ip_ratio=1.40 / pb_ratio=1.30 / aq=1:0.80
Язык : German
Default : Да
Forced : Нет
Цветовой диапазон : Limited
Основные цвета : BT.709
Характеристики трансфера : BT.709
Коэффициенты матрицы : BT.709
Аудио #1
Идентификатор : 2
Формат : AC-3
Формат/Информация : Audio Coding 3
Расширение режима : CM (complete main)
Параметр Endianness формата : Big
Идентификатор кодека : A_AC3
Продолжительность : 4 ч. 50 м.
Вид битрейта : Постоянный
Битрейт : 384 Кбит/сек
Каналы : 6 каналов
Расположение каналов : Front: L C R, Side: L R, LFE
Частота : 48,0 КГц
Метод сжатия : С потерями
Размер потока : 797 Мбайт (2%)
Заголовок : MVO, Cинема-Пристиж
Язык : Russian
Default : Да
Forced : Нет
Аудио #2
Идентификатор : 3
Формат : DTS
Формат/Информация : Digital Theater Systems
Режим : 16
Параметр Endianness формата : Big
Идентификатор кодека : A_DTS
Продолжительность : 4 ч. 50 м.
Вид битрейта : Постоянный
Битрейт : 1509 Кбит/сек
Каналы : 6 каналов
Расположение каналов : Front: L C R, Side: L R, LFE
Частота : 48,0 КГц
Битовая глубина : 24 бит
Метод сжатия : С потерями
Размер потока : 3,06 Гбайт (8%)
Язык : German
Default : Нет
Forced : Нет
Текст #1
Идентификатор : 4
Формат : UTF-8
Идентификатор кодека : S_TEXT/UTF8
Идентификатор кодека/Информация : UTF-8 Plain Text
Язык : Russian
Default : Нет
Forced : Нет
Текст #2
Идентификатор : 5
Формат : UTF-8
Идентификатор кодека : S_TEXT/UTF8
Идентификатор кодека/Информация : UTF-8 Plain Text
Язык : English
Default : Нет
Forced : Нет
Меню
00:00:00.000 : en:Chapter 1
00:10:55.200 : en:Chapter 2
00:20:00.000 : en:Chapter 3
00:30:00.520 : en:Chapter 4
00:37:12.400 : en:Chapter 5
00:46:20.280 : en:Chapter 6
00:49:36.480 : en:Chapter 7
00:52:11.000 : en:Chapter 8
00:55:36.479 : en:Chapter 9
01:05:58.880 : en:Chapter 10
01:15:56.160 : en:Chapter 11
01:23:48.600 : en:Chapter 12
01:31:15.360 : en:Chapter 13
01:37:04.320 : en:Chapter 14
01:39:23.279 : en:Chapter 15
01:47:11.080 : en:Chapter 16
01:56:49.360 : en:Chapter 17
02:05:00.840 : en:Chapter 18
02:13:42.000 : en:Chapter 19
02:21:13.640 : en:Chapter 20
02:25:27.320 : en:Chapter 21
02:28:02.320 : en:Chapter 22
02:31:59.640 : en:Chapter 23
02:40:25.800 : en:Chapter 24
02:48:21.800 : en:Chapter 25
02:56:00.199 : en:Chapter 26
03:03:57.560 : en:Chapter 27
03:12:45.040 : en:Chapter 28
03:15:19.600 : en:Chapter 29
03:19:42.880 : en:Chapter 30
03:24:26.880 : en:Chapter 31
03:30:02.240 : en:Chapter 32
03:39:13.280 : en:Chapter 33
03:49:32.480 : en:Chapter 34
04:00:11.160 : en:Chapter 35
04:02:45.800 : en:Chapter 36
04:07:47.039 : en:Chapter 37
04:15:55.120 : en:Chapter 38
04:22:20.960 : en:Chapter 39
04:30:52.120 : en:Chapter 40
04:36:48.240 : en:Chapter 41
04:42:03.000 : en:Chapter 42
04:47:39.560 : en:Chapter 43
04:50:14.520 : en:Chapter 44

Скриншоты

[Профиль] [ЛС]
Показать сообщения:    

Текущее время: Сегодня 02:09

Часовой пояс: GMT



Вы не можете начинать темы
Вы не можете отвечать на сообщения
Вы не можете редактировать свои сообщения
Вы не можете удалять свои сообщения
Вы не можете голосовать в опросах
Вы не можете прикреплять файлы к сообщениям
Вы не можете скачивать файлы