Подводная лодка / Das Boot (1981) BDRip 720p | Режиссерская версия |

 
Автор Сообщение

Russian Mafia ®

Пол:

Стаж: 1 год 8 месяцев

Сообщений: 4253



Награды: 10 (Подробнее)

Mega Seeder 4 (Количество: 1) Mega Seeder 3 (Количество: 1) Mega Seeder 2 (Количество: 1)
Торрент-статистика

Создавать темы 10-Сен-2015 06:31

[Цитировать]

Информация о фильме
Название: Подводная лодка [Режиссерская версия]
Оригинальное название: Das Boot [Director's Cut]
Год выхода: 1981
Жанр: драма, приключения, военный
Режиссер: Вольфганг Петерсен /Wolfgang Petersen/
В ролях: Юрген Прохнов /Jurgen Prochnow/, Херберт Грёнемайер /Herbert Gronemeyer/, Клаус Веннеманн /Klaus Wennemann/, Хабертус Бенгш /Hubertus Bengsch/, Отто Зандер /Otto Sander/, Гюнтер Лампрехт /Gunter Lamprecht/, Мартин Май /Martin May/, Хайнц Хёниг /Heinz Hoenig/, Уве Оксенкнехт /Uwe Ochsenknecht/...
О фильме:
Осень 1941 года. Немецкая подводная лодка отправляется в Атлантический океан, место противостояния германского и английского флотов. Жизнь по строгому распорядку, учебные тревоги, воспоминания о семьях и любимых девушках, соленые мужские шуточки… Скоро всё это закончится. Потому что впереди — ад и никакой надежды на спасение...

Награды и номинации:

Оскар, 1983 год
Номинации (6):
- Лучший режиссер (Вольфганг Петерсен)
- Лучший адаптированный сценарий
- Лучшая работа оператора
- Лучший звук
- Лучший монтаж
- Лучший монтаж звука
Британская академия, 1983 год
Номинации (1):
- Лучший фильм на иностранном языке
Золотой глобус, 1982 год
Номинации (1):
- Лучший иностранный фильм — «Германия (ФРГ)»
Страна: Германия (ФРГ)
Продолжительность: 03:28:20
Перевод: Русский профессиональный, многоголосый перевод (Позитив Мультимедиа)
Файл
Кодек: MKV, H.264
Качество: BDRip 720p (Source: Blu-ray Disc)
Видео: 4880 kbps; 0.230 bit/pixel; 1280 x 692; 1.85:1; 23.976 fps
Звук #1: AC3 Dolby Digital; 448.00 kbps, 6 Ch - MVO Pozitiv
SAMPLE / скачать с Яндекс Диск

MediaInfo

General
Complete name : Podvodnaya.Lodka.1981.RUS.BDRip.720p.h264.AC3.-HQ-ViDEO.mkv
Format : Matroska
File size : 7.91 GiB
Duration : 3h 28mn
Overall bit rate : 5 437 Kbps
Movie name : Das Boot (1981)
Encoded date : UTC 2010-11-07 08:59:20
Writing application : mkvmerge v3.3.0 ('Language') built on Mar 24 2010 14:59:24
Writing library : libebml v0.8.0 + libmatroska v0.9.0
Video
ID : 1
Format : AVC
Format/Info : Advanced Video Codec
Format profile : High@L4.1
Format settings, CABAC : Yes
Format settings, ReFrames : 6 frames
Muxing mode : Container profile=Unknown@4.1
Codec ID : V_MPEG4/ISO/AVC
Duration : 3h 28mn
Bit rate : 4 880 Kbps
Width : 1 280 pixels
Height : 692 pixels
Display aspect ratio : 1.850
Frame rate : 23.976 fps
Resolution : 8 bits
Colorimetry : 4:2:0
Scan type : Progressive
Bits/(Pixel*Frame) : 0.230
Stream size : 7.10 GiB (90%)
Title : Encoded by GYN
Audio
ID : 2
Format : AC-3
Format/Info : Audio Coding 3
Codec ID : A_AC3
Duration : 3h 28mn
Bit rate mode : Constant
Bit rate : 448 Kbps
Channel(s) : 6 channels
Channel positions : Front: L C R, Surround: L R, LFE
Sampling rate : 48.0 KHz
Stream size : 668 MiB (8%)
Title : MVO [Pozitiv]
Language : Russian
Text #1
ID : 3
Format : UTF-8
Codec ID : S_TEXT/UTF8
Codec ID/Info : UTF-8 Plain Text
Title : Pozitiv
Language : Russian
Text #2
ID : 4
Format : UTF-8
Codec ID : S_TEXT/UTF8
Codec ID/Info : UTF-8 Plain Text
Language : English

Скриншоты




[Профиль] [ЛС]
Показать сообщения:    

Текущее время: Сегодня 01:10

Часовой пояс: GMT



Вы не можете начинать темы
Вы не можете отвечать на сообщения
Вы не можете редактировать свои сообщения
Вы не можете удалять свои сообщения
Вы не можете голосовать в опросах
Вы не можете прикреплять файлы к сообщениям
Вы не можете скачивать файлы