Подводная лодка / Das Boot (1981) BDRip

 
Автор Сообщение

Russian Mafia ®

Пол:

Стаж: 1 год 8 месяцев

Сообщений: 4246



Награды: 10 (Подробнее)

Mega Seeder 4 (Количество: 1) Top Releaser 4 (Количество: 1) Top Releaser 2 (Количество: 1)
Торрент-статистика

Создавать темы 10-Сен-2015 06:28

[Цитировать]

Страна: Германия (ФРГ)
Жанр: боевик, драма, приключения, военный, история
Год выпуска: 1981
Продолжительность: 03:28:20-Перевод: Профессиональный (многоголосый, закадровый) Позитив / Карусель
Режиссер: Вольфганг Петерсен / Wolfgang Petersen
В ролях: Юрген Прохнов (Capt.-Lt. Henrich Lehmann-Willenbrock - Der Alte), Херберт Грёнемайер (Lt. Werner - Correspondent), Клаус Веннеманн (Chief Engineer Fritz Grade - Der Leitende-Der LI), Хабертус Бенгш (1st Lieutenant - Number One-1WO), Мартин Земмельрогге (2nd Lieutenant - 2WO), Бернд Таубер (Kriechbaum - Chief Quartermaster-Navigator), Эрвин Ледер (Johann), Мартин Май (Ullman), Хайнц Хёниг (Hinrich), Уве Оксенкнехт (Chief Bosun), Клод-Оливер Рудольф (Ario), Ян Федер (Pilgrim)-Описание: Осень 1941 года. Немецкая подводная лодка отправляется в Атлантический океан, место противостояния германского и английского флотов. Жизнь по строгому распорядку, учебные тревоги, воспоминания о семьях и любимых девушках, соленые мужские шуточки... Скоро всё это закончится. Потому что впереди - ад и никакой надежды на спасение...-MPAA: R - Лицам до 17 лет обязательно присутствие взрослого-Качество: BDRip | sample
Контейнер: AVI
Видео: XviD, 704x384 (16:9), 1295 kbps, 23,976 fps, 0,200 bpp
Аудио: AC3 / 2.0 / 48 kHz / 192 kbps / 16 bit-

Скриншоты

Media Info

Общее
Полное имя : E:My_ripDas Boot.1981.BDRip.[Youtracker].MVO.avi
Формат : AVI
Формат/Информация : Audio Video Interleave
Профиль формата : OpenDML
Размер файла : 2,18 Гбайт
Продолжительность : 3 ч. 28 м.
Общий поток : 1500 Кбит/сек
Программа кодирования : VirtualDubMod 1.5.10.3 | www.virtualdub-fr.org || (build 2550/release)
Библиотека кодирования : VirtualDubMod build 2550/release
Видео
Идентификатор : 0
Формат : MPEG-4 Visual
Профиль формата : Advanced Simple@L5
Параметр BVOP формата : 2
Параметр QPel формата : Нет
Параметр GMC формата : Без точки перехода
Параметр матрицы формата : Выборочная
Идентификатор кодека : XVID
Идентификатор кодека/Подсказка : XviD
Продолжительность : 3 ч. 28 м.
Битрейт : 1296 Кбит/сек
Ширина : 704 пикселя
Высота : 384 пикселя
Соотношение сторон : 1,85:1
Частота кадров : 23,976 кадра/сек
Цветовое пространство : YUV
Субдискретизация насыщенности : 4:2:0
Битовая глубина : 8 бит
Тип развёртки : Прогрессивная
Метод сжатия : С потерями
Бит/(Пиксели*Кадры) : 0.200
Размер потока : 1,89 Гбайт (86%)
Библиотека кодирования : XviD 65
Аудио
Идентификатор : 1
Формат : AC-3
Формат/Информация : Audio Coding 3
Расширение режима : CM (complete main)
Параметр Endianness формата : Big
Идентификатор кодека : 2000
Продолжительность : 3 ч. 28 м.
Вид битрейта : Постоянный
Битрейт : 192 Кбит/сек
Каналы : 2 канала
Расположение каналов : Front: L R
Частота : 48,0 КГц
Битовая глубина : 16 бит
Метод сжатия : С потерями
Размер потока : 286 Мбайт (13%)
Выравнивание : Разделение по промежуткам
Продолжительность промежутка : 42 мс. (1,00 видеокадр)
Время предзагрузки промежутка : 500 мс.
[Профиль] [ЛС]
Показать сообщения:    

Текущее время: Сегодня 07:06

Часовой пояс: GMT



Вы не можете начинать темы
Вы не можете отвечать на сообщения
Вы не можете редактировать свои сообщения
Вы не можете удалять свои сообщения
Вы не можете голосовать в опросах
Вы не можете прикреплять файлы к сообщениям
Вы не можете скачивать файлы