Подвиды 2: Кровавый камень / Bloodstone: Subspecies II (1993) BDRemux 1080p

 
Автор Сообщение

sergej644 ®

Пол:

Стаж: 4 года 11 месяцев

Сообщений: 6035

Откуда: Soviet Union



Награды: Нет

Торрент-статистика

Создавать темы 16-Фев-2015 18:43

[Цитировать]

Информация о фильме
Название: Подвиды 2: Кровавый камень
Оригинальное название: Bloodstone: Subspecies II
Год выхода: 1993
Жанр: ужасы, драма, мистика
Режиссер: Тед Николау
В ролях: Андерс Хове, Денис Дафф, Кевин Спиртас, Мелани Шетнер, Майкл Денич, Памела Гордон, Йон Хайдук, Тадорел Филимон, Виорел Команич, Виорел Сергович
Описание: Со времени пришествия зла, вампиры прославляют ночь, пируя на крови. Источник их силы заключен в священном кровавом камне. Случайной обладательницей этого камня становится американская туристка, приехавшая в Румынию, известную родину вампиров.
Легендарный вампир Раду преследует девушку. Проходя через чудовищные испытания ей приходится выбирать между смертью и проклятьем…

Страна: США
Продолжительность: 01:26:39
Перевод: Авторский (одноголосый, закадровый) Андрей Гаврилов
+ Авторский (одноголосый, закадровый)Андрей Гаврилов [старый перевод]
+ оригинал
Файл
Кодек: MPEG-4
Качество: BDRemux 1080p
Видео: MPEG-4 AVC Video / 1920x1080 / 24000 kbps / 1080p / 23.976 fps / 16:9 / High Profile 4.1
Аудио 1: Русский, AC3 2.0 256 Kbps 48,0 КГц (Gavrilov)
Аудио 2: Русский, AC3 2.0 192 Kbps 48,0 КГц (Gavrilov Old)(c VHS)
Аудио 3: English / DTS-HD Master Audio / 5.1 / 48 kHz / 1994 kbps / 16-bit (DTS Core: 5.1 / 48 kHz / 1509 kbps / 16-bit) (Original)
Аудио 4: English / FLAC / 2.0 / 48 kHz / ~475 kbps (Original)
Аудио 5: English / Dolby Digital Audio / 2.0 / 48 kHz / 192 kbps (Director's Commentary)

Скриншоты

MediaInfo

Общее
Уникальный идентификатор : 239309352396164753397935269395135528342 (0xB4094E05BED7EC01957361B9B10CFD96)
Полное имя : D:Subspecies.II.1993.BDRemux.1080p.2xRus.Eng.mkv
Формат : Matroska
Версия формата : Version 4 / Version 2
Размер файла : 16,4 Гбайт
Продолжительность : 1 ч. 26 м.
Режим общего битрейта : Переменный
Общий поток : 27,1 Мбит/сек
Название фильма : Subspecies II
Дата кодирования : UTC 2015-02-04 11:36:52
Программа кодирования : mkvmerge v7.3.0 ('Nouages') 32bit built on Oct 22 2014 18:44:01
Библиотека кодирования : libebml v1.3.0 + libmatroska v1.4.1
DURATION : 01:26:40.021000000
NUMBER_OF_FRAMES : 60938
NUMBER_OF_BYTES : 308806232
_STATISTICS_WRITING_APP : mkvmerge v7.3.0 ('Nouages') 32bit built on Oct 22 2014 18:44:01
_STATISTICS_WRITING_DATE_UTC : 2015-02-04 11:36:52
_STATISTICS_TAGS : BPS DURATION NUMBER_OF_FRAMES NUMBER_OF_BYTES
Видео
Идентификатор : 1
Формат : AVC
Формат/Информация : Advanced Video Codec
Профиль формата : High@L4.1
Параметр CABAC формата : Да
Параметр ReFrames формата : 3 кадра
Параметр GOP формата : M=3, N=12
Идентификатор кодека : V_MPEG4/ISO/AVC
Продолжительность : 1 ч. 26 м.
Вид битрейта : Переменный
Максимальный битрейт : 35,0 Мбит/сек
Ширина : 1920 пикселей
Высота : 1080 пикселей
Соотношение сторон : 16:9
Режим частоты кадров : Постоянный
Частота кадров : 23,976 кадра/сек
Стандарт вещания : NTSC
Цветовое пространство : YUV
Субдискретизация насыщенности : 4:2:0
Битовая глубина : 8 бит
Тип развёртки : Прогрессивная
Заголовок : Bloodstone: Subspecies II 1993 1080p Blu-ray AVC DTS-HD MA 5.1-NTb
Default : Нет
Forced : Нет
Основные цвета : BT.709
Характеристики трансфера : BT.709
Коэффициенты матрицы : BT.709
Аудио #1
Идентификатор : 2
Формат : AC-3
Формат/Информация : Audio Coding 3
Расширение режима : CM (complete main)
Параметр Endianness формата : Big
Идентификатор кодека : A_AC3
Продолжительность : 1 ч. 26 м.
Вид битрейта : Постоянный
Битрейт : 256 Кбит/сек
Каналы : 2 канала
Расположение каналов : Front: L R
Частота : 48,0 КГц
Битовая глубина : 16 бит
Метод сжатия : С потерями
Размер потока : 159 Мбайт (1%)
Заголовок : Gavrilov New AC3 2.0 256 kbps
Язык : Russian
Default : Нет
Forced : Нет
Аудио #2
Идентификатор : 3
Формат : AC-3
Формат/Информация : Audio Coding 3
Расширение режима : CM (complete main)
Параметр Endianness формата : Big
Идентификатор кодека : A_AC3
Продолжительность : 1 ч. 26 м.
Вид битрейта : Постоянный
Битрейт : 192 Кбит/сек
Каналы : 2 канала
Расположение каналов : Front: L R
Частота : 48,0 КГц
Битовая глубина : 16 бит
Метод сжатия : С потерями
Размер потока : 119 Мбайт (1%)
Заголовок : Gavrilov Old AC3 2.0 192 kbps
Язык : Russian
Default : Нет
Forced : Нет
Аудио #3
Идентификатор : 4
Формат : DTS
Формат/Информация : Digital Theater Systems
Профиль формата : MA / Core
Режим : 16
Параметр Endianness формата : Big
Идентификатор кодека : A_DTS
Продолжительность : 1 ч. 26 м.
Вид битрейта : Переменный
Битрейт : Неизвестно / 1509 Кбит/сек
Каналы : 6 каналов
Расположение каналов : Front: L C R, Side: L R, LFE
Частота : 48,0 КГц
Битовая глубина : 16 бит
Метод сжатия : Без потерь / Lossy
Заголовок : Original DTS-HD MA 5.1 1994 kbps
Язык : English
Default : Нет
Forced : Нет
Аудио #4
Идентификатор : 5
Формат : FLAC
Формат/Информация : Free Lossless Audio Codec
Идентификатор кодека : A_FLAC
Продолжительность : 1 ч. 26 м.
Вид битрейта : Переменный
Каналы : 2 канала
Частота : 48,0 КГц
Битовая глубина : 16 бит
Заголовок : Original FLAC 2.0 ~475 kbps
Библиотека кодирования : libFLAC 1.2.1 (UTC 2007-09-17)
Язык : English
Default : Нет
Forced : Нет
Аудио #5
Идентификатор : 6
Формат : AC-3
Формат/Информация : Audio Coding 3
Расширение режима : CM (complete main)
Параметр Endianness формата : Big
Идентификатор кодека : A_AC3
Продолжительность : 1 ч. 26 м.
Вид битрейта : Постоянный
Битрейт : 192 Кбит/сек
Каналы : 2 канала
Расположение каналов : Front: L R
Частота : 48,0 КГц
Битовая глубина : 16 бит
Метод сжатия : С потерями
Размер потока : 119 Мбайт (1%)
Заголовок : Director's Commentary AC3 2.0 192 kbps
Язык : English
Default : Нет
Forced : Нет
Меню
00:00:00.000 : en:00:00:00.000
00:07:58.561 : en:00:07:58.561
00:16:46.422 : en:00:16:46.422
00:22:18.462 : en:00:22:18.462
00:28:33.378 : en:00:28:33.378
00:33:55.450 : en:00:33:55.450
00:41:06.214 : en:00:41:06.214
00:49:01.438 : en:00:49:01.438
00:58:48.024 : en:00:58:48.024
01:07:00.391 : en:01:07:00.391
01:16:30.294 : en:01:16:30.294
01:23:45.354 : en:01:23:45.354
[Профиль] [ЛС]
Показать сообщения:    

Текущее время: Сегодня 05:01

Часовой пояс: GMT



Вы не можете начинать темы
Вы не можете отвечать на сообщения
Вы не можете редактировать свои сообщения
Вы не можете удалять свои сообщения
Вы не можете голосовать в опросах
Вы не можете прикреплять файлы к сообщениям
Вы не можете скачивать файлы