Подвиг разведчика (Виктор Сергеев) [1947, драма, военный, DVDRip]

 
Автор Сообщение

sergej644 ®

Пол:

Стаж: 4 года 11 месяцев

Сообщений: 6046

Откуда: Soviet Union



Награды: Нет

Торрент-статистика

Создавать темы 16-Июл-2015 19:07

[Цитировать]

--Подвиг разведчика (1947) DVDRip Информация о фильме
Название: Подвиг Разведчика
Год выхода: 1947
Жанр: драма, военный
Режиссер: Виктор Сергеев
В ролях:
Павел Кадочников, Виктор Добровольский, Амвросий Бучма, Дмитрий Милютенко, Сергей Мартинсон, Елена Измайлова, Борис Барнет, Михаил Романов, Пётр Аржанов, Евгений Балиев, Валерия Драга, Сергей Петров (I), Виктор Халатов, Алексей Быков
О фильме:
Советский разведчик Алексей Федотов под именем Генриха Эккерта отправляется в оккупированную немцами Винницу. Его цель - добыть секретную переписку генерала Кюна со ставкой Гитлера. Радист, посланный к Алексею для связи, расстрелян. Федотов вынужден искать связь через подполье, но случайно он узнает, что один из подпольщиков - провокатор...
Страна: СССР, Киевская киностудия
Продолжительность: 01:29:32
Перевод: не требуется
Файл
Кодек: MKV
Качество: DVDRip-AVC
Видео: MPEG-4 AVC, 2112 Кбит/с, 698x572@764x572
Звук: AC3, 2 ch, 256 Кбит/с

Скриншоты

Медиа-Инфо

Общее
Уникальный идентификатор                 : 224836269501421930063679640185217477590 (0xA925E3F15DD3CE6B9AFD43F7C6D3EBD6)
Полное имя                               : D:Подвиг разведчика_1947-DVDRip-AVC.mkv
Формат                                   : Matroska
Версия формата                           : Version 2
Размер файла                             : 1,46 Гбайт
Продолжительность                        : 1 ч. 27 м.
Общий поток                              : 2375 Кбит/сек
Дата кодирования                         : UTC 2015-07-03 13:00:41
Программа кодирования                    : mkvmerge v5.8.0 ('No Sleep / Pillow') built on Sep  2 2012 15:37:04
Библиотека кодирования                   : libebml v1.2.3 + libmatroska v1.3.0
Видео
Идентификатор                            : 1
Формат                                   : AVC
Формат/Информация                        : Advanced Video Codec
Профиль формата                          : High@L4.1
Параметр CABAC формата                   : Да
Параметр ReFrames формата                : 15 кадров
Идентификатор кодека                     : V_MPEG4/ISO/AVC
Продолжительность                        : 1 ч. 27 м.
Битрейт                                  : 2112 Кбит/сек
Ширина                                   : 698 пикселей
Высота                                   : 572 пикселя
Соотношение сторон                       : 4:3
Режим частоты кадров                     : Постоянный
Частота кадров                           : 25,000 кадров/сек
Цветовое пространство                    : YUV
Субдискретизация насыщенности            : 4:2:0
Битовая глубина                          : 8 бит
Тип развёртки                            : Прогрессивная
Бит/(Пиксели*Кадры)                      : 0.212
Размер потока                            : 1,27 Гбайт (87%)
Библиотека кодирования                   : x264 core 146 r2538 121396c
Настройки программы                      : cabac=1 / ref=15 / deblock=1:-2:-2 / analyse=0x3:0x133 / me=umh / subme=10 / psy=1 / psy_rd=1.05:0.00 / mixed_ref=1 / me_range=32 / chroma_me=1 / trellis=2 / 8x8dct=1 / cqm=0 / deadzone=21,11 / fast_pskip=0 / chroma_qp_offset=-2 / threads=12 / lookahead_threads=3 / sliced_threads=0 / nr=0 / decimate=0 / interlaced=0 / bluray_compat=0 / constrained_intra=0 / bframes=10 / b_pyramid=2 / b_adapt=2 / b_bias=0 / direct=3 / weightb=1 / open_gop=0 / weightp=2 / keyint=250 / keyint_min=25 / scenecut=40 / intra_refresh=0 / rc=2pass / mbtree=0 / bitrate=2112 / ratetol=1.0 / qcomp=0.65 / qpmin=0 / qpmax=39 / qpstep=4 / cplxblur=20.0 / qblur=0.5 / ip_ratio=1.40 / pb_ratio=1.30 / aq=1:1.00
Язык                                     : English
Default                                  : Да
Forced                                   : Нет
Основные цвета                           : BT.601 PAL
Характеристики трансфера                 : BT.470 System B, BT.470 System G
Коэффициенты матрицы                     : BT.601
Аудио
Идентификатор                            : 2
Формат                                   : AC-3
Формат/Информация                        : Audio Coding 3
Расширение режима                        : CM (complete main)
Параметр Endianness формата              : Big
Идентификатор кодека                     : A_AC3
Продолжительность                        : 1 ч. 27 м.
Вид битрейта                             : Постоянный
Битрейт                                  : 256 Кбит/сек
Каналы                                   : 2 канала
Расположение каналов                     : Front: L R
Частота                                  : 48,0 КГц
Битовая глубина                          : 16 бит
Метод сжатия                             : С потерями
Размер потока                            : 161 Мбайт (11%)
Язык                                     : Russian
Default                                  : Да
Forced                                   : Нет
Автор релиза:
[Профиль] [ЛС]

Создавать темы 06-Авг-2015 22:00 (спустя 21 день)

Топик был перенесен из форума Кино СССР в форум Кино СССР
sergej644
 
Показать сообщения:    

Текущее время: Сегодня 15:43

Часовой пояс: GMT



Вы не можете начинать темы
Вы не можете отвечать на сообщения
Вы не можете редактировать свои сообщения
Вы не можете удалять свои сообщения
Вы не можете голосовать в опросах
Вы не можете прикреплять файлы к сообщениям
Вы не можете скачивать файлы