Подвал / The Basement (2017) WEB-DLRip 720р | L

 
Автор Сообщение

BOSS ®

Пол:

Стаж: 3 года 2 месяца

Сообщений: 8576

Откуда: ODESSA



Награды: 22 (Подробнее)

Top Releaser 2 (Количество: 1) Top Seeder 5 (Количество: 1) Mega Seeder 1 (Количество: 1)
Торрент-статистика

Создавать темы 09-Окт-2017 18:46

[Цитировать]

Информация о фильме
Наименование: Подвал
Оригинальное наименование: The Basement
Произведено: Венгрия, США, Великобритания
Категория: ужасы
Режиссер постановщик: Возо Зольтан Вег, Ласло Иллеш
В главных ролях: Кэролайн Болтон, Ричард Б. Рифкин, Марина Гера, Такач Залан, Том Нгуйен, Жольт Палль, Золтан Фюле
О фильме:
Группа иностранных студентов исследует заброшенный подвал в центре Будапешта, но внезапно их приключение превращается в кровавый триллер.

Файл
Качество: WEB-DLRip 720p
Видео данные: MKV, 1280x536 (2.40:1), 24.000 fps, 4000 Кбит/с
Аудио данные: Русский (MP3, 2 ch, 320 Кбит/с)
Перевод: Любительский многоголосый (GreenРай Studio)
Продолжительность: 01:22:32

Mediainfo

General
Unique ID : 227572964777260155382537743261462797526 (0xAB34F56FF7E2A586B825FF5BEDF19CD6)
Complete name : D:Рабочий столThe.Basement.2017.P.WEB-DL.720p.mkv
Format : Matroska
Format version : Version 4 / Version 2
File size : 2.50 GiB
Duration : 1 h 22 min
Overall bit rate mode : Constant
Overall bit rate : 4 332 kb/s
Encoded date : UTC 2017-10-09 07:10:33
Writing application : mkvmerge v8.3.0 ('Over the Horizon') 64bit
Writing library : libebml v1.3.1 + libmatroska v1.4.2
Video
ID : 1
Format : AVC
Format/Info : Advanced Video Codec
Format profile : Main@L3.1
Format settings, CABAC : Yes
Format settings, ReFrames : 3 frames
Format settings, GOP : M=4, N=15
Codec ID : V_MPEG4/ISO/AVC
Duration : 1 h 22 min
Bit rate mode : Constant
Bit rate : 4 000 kb/s
Width : 1 280 pixels
Height : 536 pixels
Display aspect ratio : 2.40:1
Frame rate mode : Constant
Frame rate : 24.000 FPS
Standard : NTSC
Color space : YUV
Chroma subsampling : 4:2:0
Bit depth : 8 bits
Scan type : Progressive
Bits/(Pixel*Frame) : 0.243
Stream size : 2.24 GiB (90%)
Language : English
Default : Yes
Forced : No
Color range : Limited
Audio
ID : 2
Format : AC-3
Format/Info : Audio Coding 3
Mode extension : CM (complete main)
Format settings, Endianness : Big
Codec ID : A_AC3
Duration : 1 h 22 min
Bit rate mode : Constant
Bit rate : 448 kb/s
Channel(s) : 2 channels
Channel positions : Front: L R
Sampling rate : 48.0 kHz
Frame rate : 31.250 FPS (1536 spf)
Compression mode : Lossy
Stream size : 265 MiB (10%)
Default : Yes
Forced : No
ВНИМАНИЕ! Присутствует реклама!

Скриншоты

Релиз от:
[Профиль] [ЛС]
Показать сообщения:    

Текущее время: Сегодня 18:57

Часовой пояс: GMT



Вы не можете начинать темы
Вы не можете отвечать на сообщения
Вы не можете редактировать свои сообщения
Вы не можете удалять свои сообщения
Вы не можете голосовать в опросах
Вы не можете прикреплять файлы к сообщениям
Вы не можете скачивать файлы