Подарок / The Gift (2015) WEBRip | Звук с TS

 
Автор Сообщение

BOSS ®

Пол:

Стаж: 2 года 1 месяц

Сообщений: 3735

Откуда: ODESSA



Награды: 20 (Подробнее)

Mega Releaser 3 (Количество: 1) Top Releaser 3 (Количество: 1) Top Seeder 5 (Количество: 1)
Торрент-статистика

Создавать темы 11-Окт-2015 15:13

[Цитировать]

Информация о фильме
Название: Подарок
Оригинальное название: The Gift
Год выхода: 2015
Жанр: триллер, детектив
Режиссер: Джоэл Эдгертон
В ролях: Джейсон Бейтман, Джоэл Эдгертон, Ребекка Холл, Бизи Филиппс, Дэвид Денман, Кэтрин Аселтон, Бо Напп, Эллисон Толман, Уенделл Пирс, Сьюзэн Мэй Прэтт
О фильме: В жизнь Саймона врывается человек из далекого прошлого – его бывший одноклассник Гордо. Человек дружелюбный, немного неуклюжий, но с большими странностями. До встречи с одноклассником Саймон и его молодая супруга Робин считали свою жизнь идеальной, однако Гордо вносит в жизнь молодоженов свои коррективы.


Выпущено: Австралия, США / Blue-Tongue Films, Blumhouse Productions
Продолжительность: 01:43:18
Озвучивание: Дублированное [Звук с TS]
Примечание: Присутствуют вшитые неотключаемые арабские субтитры.
Файл
Формат: AVI (XviD)
Качество: WEBRip
Видео: 871 kb/s, 640x272
Аудио: AC3, 128 kb/s (2 ch)
Размер: 745 MB
Скачать: Сэмпл-

Media Info

General
Complete name : P0dAr0k.2015.Dt.WEBRip.745MB.avi
Format : AVI
Format/Info : Audio Video Interleave
File size : 745 MiB
Duration : 1h 43mn
Overall bit rate : 1 008 Kbps
Writing application : VirtualDubMod 1.5.10.3 | www.virtualdub-fr.org || (build 2550/release)
Writing library : VirtualDubMod build 2550/release
Video
ID : 0
Format : MPEG-4 Visual
Format profile : Advanced Simple@L5
Format settings, BVOP : 2
Format settings, QPel : No
Format settings, GMC : No warppoints
Format settings, Matrix : Default (MPEG)
Codec ID : XVID
Codec ID/Hint : XviD
Duration : 1h 43mn
Bit rate : 871 Kbps
Width : 640 pixels
Height : 272 pixels
Display aspect ratio : 2.35:1
Frame rate : 23.976 fps
Color space : YUV
Chroma subsampling : 4:2:0
Bit depth : 8 bits
Scan type : Progressive
Compression mode : Lossy
Bits/(Pixel*Frame) : 0.209
Stream size : 643 MiB (86%)
Writing library : XviD 1.2.1 (UTC 2008-12-04)
Audio
ID : 1
Format : AC-3
Format/Info : Audio Coding 3
Mode extension : CM (complete main)
Format settings, Endianness : Big
Codec ID : 2000
Duration : 1h 43mn
Bit rate mode : Constant
Bit rate : 128 Kbps
Channel(s) : 2 channels
Channel positions : Front: L R
Sampling rate : 48.0 KHz
Compression mode : Lossy
Stream size : 94.6 MiB (13%)
Alignment : Split accross interleaves
Interleave, duration : 42 ms (1.00 video frame)
Interleave, preload duration : 500 ms
-

Скриншоты | повтор:

- -
[Профиль] [ЛС]
Кто просматривает тему:

Форум Тема Автор Размер
Author's Song (Author's Song) Александр Розенбаум - Музыка Стихов. Избранное (5CD box) Подарочное издание - 2011, MP3, 320 kbps sergej644 1.1 GB
Author's Song (Author's Song/Chanson) Александр Розенбаум - Музыка Стихов. Избранное (5CD box) Подарочное издание - 2011,flac(image+.cue), lossless sergej644 2.54 GB
Chanson (Шансон) VA - Я прочитаю в глазах твоих. Подарочный сборник для любимых женщин - 2015, MP3, 256 kbps Magnat 697 MB
Программы [Разное] 101 способ оформления подарков v1.0 [Android 2.0+, RUS] TorrentFilm 5 MB
Фильмы (DVD 5/9) Драгоценный подарок (Александр Роу) [1956, СССР, Комедия, DVD5] + Original Rus TorrentFilm 4.08 GB
Разная литература Ирина Березкина - Библия комнатных растений (Подарочные издания. Энциклопедии цветовода, цветоводство, 2015, PDF) Garik014 56 MB
История, биографии, религия и искусство Людмила Третьякова - Царский подарок [Ерисанова Ирина, 2013] Magnat 522 MB
Фильмы 2013 года Младенец в подарок / Expecting (2013) DVDRip от New-Team | P | лицензия sergej644 1.53 GB
Показать сообщения:    

Текущее время: Сегодня 18:16

Часовой пояс: GMT



Вы не можете начинать темы
Вы не можете отвечать на сообщения
Вы не можете редактировать свои сообщения
Вы не можете удалять свои сообщения
Вы не можете голосовать в опросах
Вы не можете прикреплять файлы к сообщениям
Вы не можете скачивать файлы