Подарок (Михаил Дворянкин) [2010, Россия, мультфильм, WEBRip]

 
Автор Сообщение

TorrentFilm ®

Пол:

Стаж: 2 года

Сообщений: 7741



Награды: Нет

Торрент-статистика

Создавать темы 10-Мар-2016 00:08

[Цитировать]

Подарок
Страна: Россия
Жанр: мультфильм
Продолжительность: 00:08:34
Год выпуска: 2010
Режиссёр: Михаил Дворянкин
Описание: В школе устраивается праздничный вечер в честь 8 марта, и для скромного мальчика это шанс поведать о своих чувствах красивой однокласснице...
Качество: WEBRip
Формат: AVI
Видео: 1190 kbps, 640х448 (1.429), 25.000 fps, MPEG-4 Visual (XviD)
Аудио: 128 kbps, 44.1 kHz, 2 channels, MPRG Audio (MP3)
Субтитры: отсутствуют

Подробные технические данные

GeneralComplete name : Подарок (2010).aviFormat : AVIFormat/Info : Audio Video InterleaveFile size : 81.4 MiBDuration : 8mn 34sOverall bit rate : 1 327 KbpsWriting library : VirtualDub build 35491/release
VideoID : 0Format : MPEG-4 VisualFormat profile : Advanced Simple@L3Format settings, BVOP : 2Format settings, QPel : NoFormat settings, GMC : No warppointsFormat settings, Matrix : Default (H.263)Codec ID : XVIDCodec ID/Hint : XviDDuration : 8mn 34sBit rate : 1 190 KbpsWidth : 640 pixelsHeight : 448 pixelsDisplay aspect ratio : 1.429Frame rate : 25.000 fpsColor space : YUVChroma subsampling : 4:2:0Bit depth : 8 bitsScan type : ProgressiveCompression mode : LossyBits/(Pixel*Frame) : 0.166Stream size : 72.9 MiB (90%)Writing library : XviD 64
AudioID : 1Format : MPEG AudioFormat version : Version 1Format profile : Layer 3Mode : Joint stereoCodec ID : 55Codec ID/Hint : MP3Duration : 8mn 34sBit rate mode : ConstantBit rate : 128 KbpsChannel(s) : 2 channelsSampling rate : 44.1 KHzCompression mode : LossyStream size : 7.83 MiB (10%)Alignment : Split accross interleavesInterleave, duration : 40 ms (1.00 video frame)Interleave, preload duration : 501 ms

Скриншоты

[Профиль] [ЛС]
Кто просматривает тему:

Форум Тема Автор Размер
Author's Song (Author's Song) Александр Розенбаум - Музыка Стихов. Избранное (5CD box) Подарочное издание - 2011, MP3, 320 kbps sergej644 1.1 GB
Author's Song (Author's Song/Chanson) Александр Розенбаум - Музыка Стихов. Избранное (5CD box) Подарочное издание - 2011,flac(image+.cue), lossless sergej644 2.54 GB
Chanson (Шансон) VA - Я прочитаю в глазах твоих. Подарочный сборник для любимых женщин - 2015, MP3, 256 kbps Magnat 697 MB
Программы [Разное] 101 способ оформления подарков v1.0 [Android 2.0+, RUS] TorrentFilm 5 MB
Фильмы (DVD 5/9) Драгоценный подарок (Александр Роу) [1956, СССР, Комедия, DVD5] + Original Rus TorrentFilm 4.08 GB
Разная литература Ирина Березкина - Библия комнатных растений (Подарочные издания. Энциклопедии цветовода, цветоводство, 2015, PDF) Garik014 56 MB
История, биографии, религия и искусство Людмила Третьякова - Царский подарок [Ерисанова Ирина, 2013] Magnat 522 MB
Фильмы 2013 года Младенец в подарок / Expecting (2013) DVDRip от New-Team | P | лицензия sergej644 1.53 GB
Показать сообщения:    

Текущее время: Сегодня 02:44

Часовой пояс: GMT



Вы не можете начинать темы
Вы не можете отвечать на сообщения
Вы не можете редактировать свои сообщения
Вы не можете удалять свои сообщения
Вы не можете голосовать в опросах
Вы не можете прикреплять файлы к сообщениям
Вы не можете скачивать файлы