Подарок (Михаил Дворянкин) [2010, Россия, мультфильм, WEBRip]

 
Автор Сообщение

TorrentFilm ®

Пол:

Стаж: 2 года 9 месяцев

Сообщений: 7763



Награды: Нет

Торрент-статистика

Создавать темы 10-Мар-2016 00:08

[Цитировать]

Подарок
Страна: Россия
Жанр: мультфильм
Продолжительность: 00:08:34
Год выпуска: 2010
Режиссёр: Михаил Дворянкин
Описание: В школе устраивается праздничный вечер в честь 8 марта, и для скромного мальчика это шанс поведать о своих чувствах красивой однокласснице...
Качество: WEBRip
Формат: AVI
Видео: 1190 kbps, 640х448 (1.429), 25.000 fps, MPEG-4 Visual (XviD)
Аудио: 128 kbps, 44.1 kHz, 2 channels, MPRG Audio (MP3)
Субтитры: отсутствуют

Подробные технические данные

GeneralComplete name : Подарок (2010).aviFormat : AVIFormat/Info : Audio Video InterleaveFile size : 81.4 MiBDuration : 8mn 34sOverall bit rate : 1 327 KbpsWriting library : VirtualDub build 35491/release
VideoID : 0Format : MPEG-4 VisualFormat profile : Advanced Simple@L3Format settings, BVOP : 2Format settings, QPel : NoFormat settings, GMC : No warppointsFormat settings, Matrix : Default (H.263)Codec ID : XVIDCodec ID/Hint : XviDDuration : 8mn 34sBit rate : 1 190 KbpsWidth : 640 pixelsHeight : 448 pixelsDisplay aspect ratio : 1.429Frame rate : 25.000 fpsColor space : YUVChroma subsampling : 4:2:0Bit depth : 8 bitsScan type : ProgressiveCompression mode : LossyBits/(Pixel*Frame) : 0.166Stream size : 72.9 MiB (90%)Writing library : XviD 64
AudioID : 1Format : MPEG AudioFormat version : Version 1Format profile : Layer 3Mode : Joint stereoCodec ID : 55Codec ID/Hint : MP3Duration : 8mn 34sBit rate mode : ConstantBit rate : 128 KbpsChannel(s) : 2 channelsSampling rate : 44.1 KHzCompression mode : LossyStream size : 7.83 MiB (10%)Alignment : Split accross interleavesInterleave, duration : 40 ms (1.00 video frame)Interleave, preload duration : 501 ms

Скриншоты

[Профиль] [ЛС]
Показать сообщения:    

Текущее время: Сегодня 07:18

Часовой пояс: GMT



Вы не можете начинать темы
Вы не можете отвечать на сообщения
Вы не можете редактировать свои сообщения
Вы не можете удалять свои сообщения
Вы не можете голосовать в опросах
Вы не можете прикреплять файлы к сообщениям
Вы не можете скачивать файлы