Подарок с характером (Карен Оганесян)[2014, семейный, приключения, BDRip-AVC] | лицензия

 
Автор Сообщение

sergej644 ®

Пол:

Стаж: 4 года 11 месяцев

Сообщений: 6038

Откуда: Soviet Union



Награды: Нет

Торрент-статистика

Создавать темы 09-Авг-2014 09:41

[Цитировать]

--Подарок с характером
-Страна: Россия / Fresh Films
Жанр: семейный, приключения, комедия
Год выпуска: 2014
Продолжительность: 01:28:13
Перевод: Не требуется
Cубтитры: нет
Оригинальная аудиодорожка: русский
Режиссер: Карен Оганесян
В ролях: Михаил Галустян, Артем Фадеев, Фёдор Бондарчук, Екатерина Климова, Николай Валуев, Ирина Безрукова, Катерина Шпица, Алексей Макаров, Константин Юшкевич, Инга Стрелкова-Оболдина...
Описание: Быть пандой весело! Но не Мише, который вынужден работать в костюме панды на детских праздниках. Ему тридцать лет, он живет в крохотной однушке на окраине Москвы, и у него нет серьезной работы. Все было так, пока его не позвали на день рождения к сыну олигарха. Артему девять лет, и у него есть тайный план, помочь осуществить который может только Миша. Мальчик и панда отправляются в путешествие через всю страну, то и дело вляпываясь в невероятные ситуации.-
Качество: BDRip-AVC / Blu-ray 1080p от «Lizard Cinema Trade»
Формат: MKV
Видео: 1024x552 (1.85:1), 23.976 fps, MPEG-4 AVC, ~1913 kbps avg, 0.141 bit/pix
Аудио: 48 kHz, Dolby AC3, 6 ch, 448 kbps, русский
Раздача от:

MediaInfo

Общее
Полное имя                               : Podarok.s.harakterom.2014.O.BDRip-AVC_[New-Team]_by_avproh.mkv
Формат                                   : Matroska
Версия формата                           : Version 4 / Version 2
Размер файла                             : 1,46 Гбайт
Продолжительность                        : 1 ч. 28 м.
Общий поток                              : 2362 Кбит/сек
Дата кодирования                         : UTC 2014-08-08 23:28:19
Программа кодирования                    : mkvmerge v7.1.0 ('Good Love') 64bit built on Jul 27 2014 13:06:55
Библиотека кодирования                   : libebml v1.3.0 + libmatroska v1.4.1
DURATION                                 : 01:28:13.248000000
NUMBER_OF_FRAMES                         : 165414
NUMBER_OF_BYTES                          : 296421888
_STATISTICS_WRITING_APP                  : mkvmerge v7.1.0 ('Good Love') 64bit built on Jul 27 2014 13:06:55
_STATISTICS_WRITING_DATE_UTC             : 2014-08-08 23:28:19
_STATISTICS_TAGS                         : BPS DURATION NUMBER_OF_FRAMES NUMBER_OF_BYTES
Видео
Идентификатор                            : 1
Формат                                   : AVC
Формат/Информация                        : Advanced Video Codec
Профиль формата                          : High@L4.1
Параметр CABAC формата                   : Да
Параметр ReFrames формата                : 8 кадров
Идентификатор кодека                     : V_MPEG4/ISO/AVC
Продолжительность                        : 1 ч. 28 м.
Битрейт                                  : 1913 Кбит/сек
Ширина                                   : 1024 пикселя
Высота                                   : 552 пикселя
Соотношение сторон                       : 1,85:1
Режим частоты кадров                     : Постоянный
Частота кадров                           : 23,976 кадра/сек
Цветовое пространство                    : YUV
Субдискретизация насыщенности            : 4:2:0
Битовая глубина                          : 8 бит
Тип развёртки                            : Прогрессивная
Бит/(Пиксели*Кадры)                      : 0.141
Размер потока                            : 1,15 Гбайт (79%)
Библиотека кодирования                   : x264 core 138 r2356 a1d3d17
Настройки программы                      : cabac=1 / ref=8 / deblock=1:-3:-2 / analyse=0x3:0x113 / me=umh / subme=10 / psy=1 / psy_rd=1.00:0.05 / mixed_ref=1 / me_range=32 / chroma_me=1 / trellis=2 / 8x8dct=1 / cqm=0 / deadzone=21,11 / fast_pskip=0 / chroma_qp_offset=-3 / threads=9 / lookahead_threads=1 / sliced_threads=0 / nr=0 / decimate=0 / interlaced=0 / bluray_compat=0 / constrained_intra=0 / bframes=8 / b_pyramid=2 / b_adapt=2 / b_bias=0 / direct=3 / weightb=1 / open_gop=0 / weightp=2 / keyint=240 / keyint_min=24 / scenecut=40 / intra_refresh=0 / rc_lookahead=40 / rc=2pass / mbtree=1 / bitrate=1913 / ratetol=1.0 / qcomp=0.60 / qpmin=0 / qpmax=69 / qpstep=4 / cplxblur=20.0 / qblur=0.5 / ip_ratio=1.40 / aq=1:1.00
Язык                                     : Russian
Default                                  : Да
Forced                                   : Нет
DURATION                                 : 01:28:13.247000000
NUMBER_OF_FRAMES                         : 126911
NUMBER_OF_BYTES                          : 1265333421
_STATISTICS_WRITING_APP                  : mkvmerge v7.1.0 ('Good Love') 64bit built on Jul 27 2014 13:06:55
_STATISTICS_WRITING_DATE_UTC             : 2014-08-08 23:28:19
_STATISTICS_TAGS                         : BPS DURATION NUMBER_OF_FRAMES NUMBER_OF_BYTES
Аудио
Идентификатор                            : 2
Формат                                   : AC-3
Формат/Информация                        : Audio Coding 3
Расширение режима                        : CM (complete main)
Параметр Endianness формата              : Big
Идентификатор кодека                     : A_AC3
Продолжительность                        : 1 ч. 28 м.
Вид битрейта                             : Постоянный
Битрейт                                  : 448 Кбит/сек
Каналы                                   : 6 каналов
Расположение каналов                     : Front: L C R, Side: L R, LFE
Частота                                  : 48,0 КГц
Битовая глубина                          : 16 бит
Метод сжатия                             : С потерями
Размер потока                            : 283 Мбайт (19%)
Язык                                     : Russian
Default                                  : Да
Forced                                   : Нет

Скриншоты:

--
[Профиль] [ЛС]
Кто просматривает тему:

Форум Тема Автор Размер
Author's Song (Author's Song) Александр Розенбаум - Музыка Стихов. Избранное (5CD box) Подарочное издание - 2011, MP3, 320 kbps sergej644 1.1 GB
Author's Song (Author's Song/Chanson) Александр Розенбаум - Музыка Стихов. Избранное (5CD box) Подарочное издание - 2011,flac(image+.cue), lossless sergej644 2.54 GB
Chanson (Шансон) VA - Я прочитаю в глазах твоих. Подарочный сборник для любимых женщин - 2015, MP3, 256 kbps Magnat 697 MB
Программы [Разное] 101 способ оформления подарков v1.0 [Android 2.0+, RUS] TorrentFilm 5 MB
Фильмы (DVD 5/9) Драгоценный подарок (Александр Роу) [1956, СССР, Комедия, DVD5] + Original Rus TorrentFilm 4.08 GB
Разная литература Ирина Березкина - Библия комнатных растений (Подарочные издания. Энциклопедии цветовода, цветоводство, 2015, PDF) Garik014 56 MB
История, биографии, религия и искусство Людмила Третьякова - Царский подарок [Ерисанова Ирина, 2013] Magnat 522 MB
Фильмы 2013 года Младенец в подарок / Expecting (2013) DVDRip от New-Team | P | лицензия sergej644 1.53 GB
Показать сообщения:    

Текущее время: Сегодня 12:33

Часовой пояс: GMT



Вы не можете начинать темы
Вы не можете отвечать на сообщения
Вы не можете редактировать свои сообщения
Вы не можете удалять свои сообщения
Вы не можете голосовать в опросах
Вы не можете прикреплять файлы к сообщениям
Вы не можете скачивать файлы