Подарок с характером (2014) WEBRip 720p

 
Автор Сообщение

sergej644 ®

Пол:

Стаж: 4 года 11 месяцев

Сообщений: 6042

Откуда: Soviet Union



Награды: Нет

Торрент-статистика

Создавать темы 18-Июл-2014 20:21

[Цитировать]

-Подарок с характером

Информация о фильме
Название: Подарок с характером (2014) WEBRip 720p
Год выхода: 2014
Жанр: семейный, приключения, комедия
Режиссер: Карен Оганесян
В ролях: Михаил Галустян, Артем Фадеев, Фёдор Бондарчук, Екатерина Климова, Николай Валуев, Ирина Безрукова, Катерина Шпица, Алексей Макаров, Константин Юшкевич, Инга Стрелкова-Оболдина
О фильме:
Быть пандой весело! Но не Мише, который вынужден работать в костюме панды на детских праздниках. Ему тридцать лет, он живет в крохотной однушке на окраине Москвы, и у него нет серьезной работы. Все было так, пока его не позвали на день рождения к сыну олигарха. Артему девять лет, и у него есть тайный план, помочь осуществить который может только Миша. Мальчик и панда отправляются в путешествие через всю страну, то и дело вляпываясь в невероятные ситуации.

Страна: Россия
Студия: Fresh Films
Продолжительность: 01:21:16
Перевод: Оригинал
Файл
Кодек: h.264 (MKV)
Качество: WEBRip 720p
Видео: AVC, 1280 x 680, ~4240 kbps
Звук: AC-3, 2 ch, 256 kbps
Субтитры: нет
Семпл

Скриншоты

MI

Общее
Уникальный идентификатор : 180043707848772139423360323701995697143 (0x87732825A599B1E294AD53FFB0B773F7)
Полное имя : G: Подарок с характером (2014)Без названияПодарок с характером (2014) WEBRip 720p.mkv
Формат : Matroska
Версия формата : Version 4 / Version 2
Размер файла : 2,60 Гбайт
Продолжительность : 1 ч. 21 м.
Общий поток : 4588 Кбит/сек
Дата кодирования : UTC 2014-06-23 03:18:35
Программа кодирования : mkvmerge v6.9.1 ('Blue Panther') 64bit built on Apr 18 2014 18:23:38
Библиотека кодирования : libebml v1.3.0 + libmatroska v1.4.1
Видео
Идентификатор : 1
Формат : AVC
Формат/Информация : Advanced Video Codec
Профиль формата : Main@L5.1
Параметр CABAC формата : Да
Параметр ReFrames формата : 1 кадр
Идентификатор кодека : V_MPEG4/ISO/AVC
Продолжительность : 1 ч. 21 м.
Битрейт : 4240 Кбит/сек
Ширина : 1280 пикселей
Высота : 680 пикселей
Соотношение сторон : 1,882
Режим частоты кадров : Постоянный
Частота кадров : 25,000 кадров/сек
Цветовое пространство : YUV
Субдискретизация насыщенности : 4:2:0
Битовая глубина : 8 бит
Тип развёртки : Прогрессивная
Бит/(Пиксели*Кадры) : 0.195
Размер потока : 2,41 Гбайт (92%)
Default : Да
Forced : Нет
Аудио
Идентификатор : 2
Формат : AC-3
Формат/Информация : Audio Coding 3
Расширение режима : CM (complete main)
Параметр Endianness формата : Big
Идентификатор кодека : A_AC3
Продолжительность : 1 ч. 21 м.
Вид битрейта : Постоянный
Битрейт : 256 Кбит/сек
Каналы : 2 канала
Расположение каналов : Front: L R
Частота : 48,0 КГц
Битовая глубина : 16 бит
Метод сжатия : С потерями
Размер потока : 149 Мбайт (6%)
Default : Да
Forced : Нет
--
[Профиль] [ЛС]
Кто просматривает тему:

Форум Тема Автор Размер
Author's Song (Author's Song) Александр Розенбаум - Музыка Стихов. Избранное (5CD box) Подарочное издание - 2011, MP3, 320 kbps sergej644 1.1 GB
Author's Song (Author's Song/Chanson) Александр Розенбаум - Музыка Стихов. Избранное (5CD box) Подарочное издание - 2011,flac(image+.cue), lossless sergej644 2.54 GB
Chanson (Шансон) VA - Я прочитаю в глазах твоих. Подарочный сборник для любимых женщин - 2015, MP3, 256 kbps Magnat 697 MB
Программы [Разное] 101 способ оформления подарков v1.0 [Android 2.0+, RUS] TorrentFilm 5 MB
Фильмы (DVD 5/9) Драгоценный подарок (Александр Роу) [1956, СССР, Комедия, DVD5] + Original Rus TorrentFilm 4.08 GB
Разная литература Ирина Березкина - Библия комнатных растений (Подарочные издания. Энциклопедии цветовода, цветоводство, 2015, PDF) Garik014 56 MB
История, биографии, религия и искусство Людмила Третьякова - Царский подарок [Ерисанова Ирина, 2013] Magnat 522 MB
Фильмы 2013 года Младенец в подарок / Expecting (2013) DVDRip от New-Team | P | лицензия sergej644 1.53 GB
Показать сообщения:    

Текущее время: Сегодня 12:32

Часовой пояс: GMT



Вы не можете начинать темы
Вы не можете отвечать на сообщения
Вы не можете редактировать свои сообщения
Вы не можете удалять свои сообщения
Вы не можете голосовать в опросах
Вы не можете прикреплять файлы к сообщениям
Вы не можете скачивать файлы