Подарок Мэгги / Gift of the Magi (Лиза Мулкахи / Lisa Mulcahy) [2010, США, драма, HDTVRip] MVO

 
Автор Сообщение

TorrentFilm ®

Пол:

Стаж: 2 года 6 месяцев

Сообщений: 7773



Награды: Нет

Торрент-статистика

Создавать темы 24-Мар-2015 00:02

[Цитировать]

Подарок Мэгги / Gift of the Magi
Страна: США
Жанр: драма
Год выпуска: 2010
Продолжительность: 01:21:59
Перевод: Профессиональный (многоголосый закадровый)
Cубтитры: нет
Режиссер: Лиза Мулкахи / Lisa Mulcahy
В ролях: Марла Соколофф, Марк Веббер, Мишель Бимиш, Глайннис Кассон, Томас Грубе, Гари Хецлер, Имонн Хант, Roisin Kiely, Джерри МакКанн, Бэрри МакГоверн
Описание: Молодожены Джим и Мэгги живут в тесной квартирке и едва сводят концы с концами. Окончательно их добивает поломка автомобиля. Пара соглашается отказаться от подарков на Рождество в этом году, но в тайне друг для друга они готовят что-то грандиозное.
Доп. информация: За запись исходника спасибо Romanok8691
Сэмпл: https://yadi.sk/i/1OyE_R5ffN2gP
Релиз
Качество видео: HDTVRip [Исходник 1080i]
Формат видео: AVI
Видео: 720x400 (1.80:1), 25 fps, XviD build 50 ~2239 kbps avg, 0.31 bit/pixel
Аудио: 48 kHz, AC3 Dolby Digital, 2/0 (L,R) ch, ~192 kbps

MediaInfo

Подарок Мэгги - Gift of the Magi [by Edich2].avi
Format : AVI
Format/Info : Audio Video Interleave
File size : 1.40 GiB
Duration : 1h 21mn
Overall bit rate : 2 441 Kbps
Movie name : Подарок Мэгги - Gift of the Magi [by Edich2]
Director : by Edich2
Writing application : VirtualDubMod 1.5.10.3 | www.virtualdub-fr.org || (build 2550/release)
Comment : RuTracker.org
Video
ID : 0
Format : MPEG-4 Visual
Format profile : Advanced Simple@L5
Format settings, BVOP : 1
Format settings, QPel : No
Format settings, GMC : No warppoints
Format settings, Matrix : Default (MPEG)
Codec ID : XVID
Codec ID/Hint : XviD
Duration : 1h 21mn
Bit rate : 2 240 Kbps
Width : 720 pixels
Height : 400 pixels
Display aspect ratio : 16:9
Frame rate : 25.000 fps
Color space : YUV
Chroma subsampling : 4:2:0
Bit depth : 8 bits
Scan type : Progressive
Compression mode : Lossy
Bits/(Pixel*Frame) : 0.311
Stream size : 1.28 GiB (92%)
Writing library : XviD 1.2.1 (UTC 2008-12-04)
Audio
ID : 1
Format : AC-3
Format/Info : Audio Coding 3
Mode extension : CM (complete main)
Format settings, Endianness : Big
Codec ID : 2000
Duration : 1h 21mn
Bit rate mode : Constant
Bit rate : 192 Kbps
Channel(s) : 2 channels
Channel positions : Front: L R
Sampling rate : 48.0 KHz
Bit depth : 16 bits
Compression mode : Lossy
Stream size : 113 MiB (8%)
Alignment : Split accross interleaves
Interleave, duration : 40 ms (1.00 video frame)
Interleave, preload duration : 500 ms

Скриншоты


[Профиль] [ЛС]

Создавать темы 06-Авг-2015 22:40 (спустя 4 месяца 13 дней)

Топик был перенесен из форума Фильмы до 2014 года в форум Фильмы до 2012 года
sergej644
 

Создавать темы 12-Июн-2016 07:54 (спустя 1 год 2 месяца)

Топик был перенесен из форума Фильмы 2011 года в форум Фильмы 2010 года
Russian Mafia
 
Кто просматривает тему:

Показать сообщения:    

Текущее время: Сегодня 14:35

Часовой пояс: GMT



Вы не можете начинать темы
Вы не можете отвечать на сообщения
Вы не можете редактировать свои сообщения
Вы не можете удалять свои сообщения
Вы не можете голосовать в опросах
Вы не можете прикреплять файлы к сообщениям
Вы не можете скачивать файлы