Подарок из Африки (Арнольд Буров) [1975, кукольная анимация, TeleSynch]

 
Автор Сообщение

painkiller ®

Стаж: 2 года 3 месяца

Сообщений: 582



Награды: Нет

Торрент-статистика

Создавать темы 27-Авг-2014 19:36

[Цитировать]

Подарок из Африки
Страна: СССР (Рижская киностудия)
Жанр: кукольная анимация
Продолжительность: 00:09:53
Год выпуска: 1975
Перевод: Профессиональный (дублированный)
Русские субтитры: нет
Режиссёр: Арнольд Буров
Роли озвучивали: Дикторский текст: А. Уманова
Описание: Мальчишкам из клуба "Юных натуралистов" прислали посылку из Африки. В посылке оказалось яйцо. Вскоре из яйца вылупился....крокодильчик. И как обычно это случается, крокодильчик убежал. Мальчики по всему городку развесили объявления о пропаже крокодила. И в городке началась паника.
Доп. информация: Фильм оцифрован с киноплёнки из личной коллекции
Качество: TeleSynch
Формат: MPG
Видео: 720x576 (4:3) @ 768x576, 25.000 fps, MPEG-2 Video, ~9236 Kbps, 0.891 bits/pixel
Аудио: 48.0 KHz, AC3, 1 ch, 192 Kbps
Субтитры: отсутствуют
MediaInfo">

Скриншоты MediaInfo


GeneralComplete name : Подарок из Африки (Рижская киностудия) 1975.mpgFormat : MPEG-PSFile size : 680 MiBDuration : 9mn 53sOverall bit rate mode : VariableOverall bit rate : 9 619 Kbps
VideoID : 224 (0xE0)Format : MPEG VideoFormat version : Version 2Format profile : Main@MainFormat settings, BVOP : YesFormat settings, Matrix : DefaultFormat settings, GOP : VariableDuration : 9mn 53sBit rate mode : VariableBit rate : 9 300 KbpsWidth : 720 pixelsHeight : 576 pixelsDisplay aspect ratio : 4:3Frame rate : 25.000 fpsStandard : PALColor space : YUVChroma subsampling : 4:2:0Bit depth : 8 bitsScan type : InterlacedScan order : Top Field FirstCompression mode : LossyBits/(Pixel*Frame) : 0.897Time code of first frame : 00:00:00:00Time code source : Group of pictures headerStream size : 653 MiB (96%)Color primaries : BT.601 PALTransfer characteristics : BT.470 System B, BT.470 System GMatrix coefficients : BT.601
AudioID : 189 (0xBD)-128 (0x80)Format : AC-3Format/Info : Audio Coding 3Mode extension : CM (complete main)Format settings, Endianness : BigMuxing mode : DVD-VideoDuration : 9mn 53sBit rate mode : ConstantBit rate : 192 KbpsChannel(s) : 1 channelChannel positions : Front: CSampling rate : 48.0 KHzBit depth : 16 bitsCompression mode : LossyStream size : 13.6 MiB (2%)
[Профиль] [ЛС]
Кто просматривает тему:

Форум Тема Автор Размер
Author's Song (Author's Song) Александр Розенбаум - Музыка Стихов. Избранное (5CD box) Подарочное издание - 2011, MP3, 320 kbps sergej644 1.1 GB
Author's Song (Author's Song/Chanson) Александр Розенбаум - Музыка Стихов. Избранное (5CD box) Подарочное издание - 2011,flac(image+.cue), lossless sergej644 2.54 GB
Chanson (Шансон) VA - Я прочитаю в глазах твоих. Подарочный сборник для любимых женщин - 2015, MP3, 256 kbps Magnat 697 MB
Программы [Разное] 101 способ оформления подарков v1.0 [Android 2.0+, RUS] TorrentFilm 5 MB
Фильмы (DVD 5/9) Драгоценный подарок (Александр Роу) [1956, СССР, Комедия, DVD5] + Original Rus TorrentFilm 4.08 GB
Разная литература Ирина Березкина - Библия комнатных растений (Подарочные издания. Энциклопедии цветовода, цветоводство, 2015, PDF) Garik014 56 MB
История, биографии, религия и искусство Людмила Третьякова - Царский подарок [Ерисанова Ирина, 2013] Magnat 522 MB
Фильмы 2013 года Младенец в подарок / Expecting (2013) DVDRip от New-Team | P | лицензия sergej644 1.53 GB
Показать сообщения:    

Текущее время: Сегодня 18:28

Часовой пояс: GMT



Вы не можете начинать темы
Вы не можете отвечать на сообщения
Вы не можете редактировать свои сообщения
Вы не можете удалять свои сообщения
Вы не можете голосовать в опросах
Вы не можете прикреплять файлы к сообщениям
Вы не можете скачивать файлы