Погребенный заживо / Buried (Родриго Кортес / Rodrigo Cortés) [2010, США, Триллер, драма, детектив, BDRip] Dub + AVO (Визгунов) + Original (Eng) + Sub (Rus, Eng)

 
Автор Сообщение

TorrentFilm ®

Пол:

Стаж: 2 года

Сообщений: 7741



Награды: Нет

Торрент-статистика

Создавать темы 29-Фев-2016 00:09

[Цитировать]

Погребенный заживо / Buried- Год выпуска: 2010
Выпущено: Испания, США, Франция / Millennium Films
Жанр: триллер, драма, детектив
Продолжительность: 01:35:27
Перевод (1): Профессиональный (полное дублирование) R5 |Лицензия|
Перевод (2): Авторский (одноголосый закадровый) Сергей Визгунов
Cубтитры: Русские, Английские (внешние srt*)
Оригинальная аудиодорожка: Английская-Режиссер:
Родриго Кортес / Rodrigo Cortés-В ролях:
Райан Рейнольдс (Paul Conroy), Хосе Луис Гарсия Перез (Jabir), Роберт Патерсон (Dan Brenner), Стивен Тоболовски (Alan Davenport), Саманта Мэтис (Linda Conroy), Ивана Миньо (Pamela Lutti), Уорнер Лафлин (Maryanne Conroy / Donna Mitchell / Rebecca Browning), Эрик Палладино (Special Agent Harris), Кали Роча (911 Operator), Крис Мартин (State Department Rep)-Описание:
Герой фильма Пол, находящийся в Ираке по контракту, во время засады теряет сознание и спустя время приходит в себя в странном тесном темном месте. Не трудно догадаться, что воспользовавшись зажигалкой, Пол обнаруживает себя похороненным в гробу. Ему предстоит пережить много страшных, психологически тяжелых, физически невозможных мгновений борьбы за собственную жизнь в попытках выбраться из неожиданной ловушки…-Релиз групп | | IMDB | КиноПоиск | Сэмпл | (1.46) |-Качество: BDRip [Blu-ray Disc]
Формат: AVI
Видео: 720x304 (2.37:1), 23.976 fps, XviD build 67 ~1790 kbps avg, 0.34 bit/pixel
Аудио #1: 48 kHz, AC3 Dolby Digital, 3/2 (L,C,R,l,r) + LFE ch, ~384.00 kbps avg (DUB) R5
Аудио #2: 48 kHz, AC3 Dolby Digital, 3/2 (L,C,R,l,r) + LFE ch, ~384.00 kbps avg (AVO) Сергей Визгунов отдельно
Аудио #3: 48 kHz, AC3 Dolby Digital, 3/2 (L,C,R,l,r) + LFE ch, ~384.00 kbps avg (ENG) отдельно
-

Скриншоты

-

MediaInfo

General
Complete name                            : D:\Pogrebennyi_zazhivo_2010_BDRip_by_Dalemake.avi
Format                                   : AVI
Format/Info                              : Audio Video Interleave
File size                                : 1.46 GiB
Duration                                 : 1h 35mn
Overall bit rate                         : 2 184 Kbps
Writing application                      : VirtualDubMod 1.5.10.3 | www.virtualdub-fr.org || (build 2550/release)
Writing library                          : VirtualDubMod build 2550/release
Video
ID                                       : 0
Format                                   : MPEG-4 Visual
Format profile                           : Advanced Simple@L5
Format settings, BVOP                    : 1
Format settings, QPel                    : No
Format settings, GMC                     : No warppoints
Format settings, Matrix                  : Custom
Codec ID                                 : XVID
Codec ID/Hint                            : XviD
Duration                                 : 1h 35mn
Bit rate                                 : 1 790 Kbps
Width                                    : 720 pixels
Height                                   : 304 pixels
Display aspect ratio                     : 2.35:1
Frame rate                               : 23.976 (23976/1000) fps
Color space                              : YUV
Chroma subsampling                       : 4:2:0
Bit depth                                : 8 bits
Scan type                                : Progressive
Compression mode                         : Lossy
Bits/(Pixel*Frame)                       : 0.341
Stream size                              : 1.19 GiB (82%)
Writing library                          : XviD 67
Audio
ID                                       : 1
Format                                   : AC-3
Format/Info                              : Audio Coding 3
Mode extension                           : CM (complete main)
Format settings, Endianness              : Big
Codec ID                                 : 2000
Duration                                 : 1h 35mn
Bit rate mode                            : Constant
Bit rate                                 : 384 Kbps
Channel(s)                               : 6 channels
Channel positions                        : Front: L C R, Side: L R, LFE
Sampling rate                            : 48.0 KHz
Frame rate                               : 31.250 fps (1536 spf)
Compression mode                         : Lossy
Stream size                              : 262 MiB (18%)
Alignment                                : Split accross interleaves
Interleave, duration                     : 42 ms (1.00 video frame)
Interleave, preload duration             : 500 ms

-
За появления перевода С.Визгунова спасибо пользователям форума e180: Slimka, Dervish, Devlad, Gercules (hdclub.org), SoftSlider, kabukiman, carnivale, ZombX, Bilko
[Профиль] [ЛС]

Создавать темы 12-Июн-2016 07:53 (спустя 3 месяца 12 дней)

Топик был перенесен из форума Фильмы 2011 года в форум Фильмы 2010 года
Russian Mafia
 
Кто просматривает тему:

Форум Тема Автор Размер
Разная литература Ирина Кутовая (сост.) - Вкусный погребок. Домашние заготовки (2015) PDF достали все 13 MB
Фильмы (HD Rips | 720p, 1080p) Как я провёл этим летом (Алексей Попогребский) [2010, Россия, триллер, BDRip 1080p] TorrentFilm 8.23 GB
Фильмы (HD Rips | 720p, 1080p) Как я провёл этим летом (Алексей Попогребский) [2010, Россия, триллер, BDRip 720p] TorrentFilm 4.78 GB
Фильмы (HD Rips | 720p, 1080p) Как я провёл этим летом (Алексей Попогребский) [2010, Россия, триллер, Blu-ray disc 1080i] Sub Eng TorrentFilm 29.48 GB
Фильмы 2014 года Непогребенные кости / Grafir & Bein (2014) WEB-Rip достали все 702 MB
Фильмы 2014 года Непогребенные кости / Grafir og bein (Антон Сигурдссон) [2014, Триллер] DVDRip | L1 BOSS 1.46 GB
Разная литература Осипов Н.П. - Россiйской хозяйственной винокуръ, пивоваръ, медоваръ, водочной мастеръ, квасникъ, уксусникъ и погребщикъ / Российской хозяйственной винокур, пивовар, медовар, водочный мастер, квасник,... Garik014 5 MB
Фильмы 2010 года Погребенный заживо / Buried (Родриго Кортес / Rodrigo Cortés) [2010, Испания, США, Франция , триллер, драма, детектив, BDRip] AVO (Визгунов) TorrentFilm 1.45 GB
Показать сообщения:    

Текущее время: Сегодня 23:29

Часовой пояс: GMT



Вы не можете начинать темы
Вы не можете отвечать на сообщения
Вы не можете редактировать свои сообщения
Вы не можете удалять свои сообщения
Вы не можете голосовать в опросах
Вы не можете прикреплять файлы к сообщениям
Вы не можете скачивать файлы