Погребенный заживо / Buried (Родриго Кортес / Rodrigo Cortés) [2010, Испания, США, Франция, драма, триллер, детектив, BDRip-AVC] Dub

 
Автор Сообщение

TorrentFilm ®

Пол:

Стаж: 2 года

Сообщений: 7741



Награды: Нет

Торрент-статистика

Создавать темы 22-Фев-2016 00:08

[Цитировать]

Погребенный заживо / Buried
««170 000 sq miles of desert. 90 minutes of oxygen. No way out»
- Страна: Испания, США, Франция
Жанр: драма, триллер, детектив
Год выпуска: 2010
Продолжительность: 01:35:28
Перевод : Профессиональный (полное дублирование)
Cубтитры: нет
Навигация по главам: есть
Режиссёр: Родриго Кортес / Rodrigo Cortés
В ролях: Райан Рейнольдс, Хосе Луис Гарсия Перез, Роберт Патерсон, Стивен Тоболовски, Саманта Мэтис, Ивана Миньо, Уорнер Лафлин, Эрик Палладино, Кали Роча, Крис Мартин, Кейд Дандиш, Мэри Бердсонг, Кирк Бейли, Энн Локхарт, Роберт Клотуорти
Описание: Герой фильма Пол, находящийся в Ираке по контракту, во время засады теряет сознание и спустя время приходит в себя в странном тесном темном месте. Нетрудно догадаться, что воспользовавшись зажигалкой, Пол обнаруживает себя похороненным в гробу. Ему предстоит пережить много страшных, психологически тяжелых, физически невозможных мгновений борьбы за собственную жизнь в попытках выбраться из неожиданной ловушки…

Качество видео: BDRip-AVC (исходник - Buried.2010.BD.Remux.1080p.h264.Rus.Eng)
Формат видео: MKV
Видео: x264, 1024x436 (2,35:1), 23,976 fps, ~1750 kbps, 0.163 bit/pixel
Аудио: 48 kHz, AC3 Dolby Digital, 3/2 (L,C,R,l,r) + LFE ch, ~448 kbps

MediaInfo | x264 log

Format : Matroska
Format version : Version 4 / Version 2
File size : 1.47 GiB
Duration : 1h 35mn
Overall bit rate : 2 199 Kbps
Movie name : Погребённый заживо / Buried (2010) :: AFM ::
Encoded date : UTC 2016-02-20 19:39:36
Writing application : mkvmerge v8.3.0 ('Over the Horizon') 32bit
Writing library : libebml v1.3.1 + libmatroska v1.4.2
Video
ID : 1
Format : AVC
Format/Info : Advanced Video Codec
Format profile : High@L4.1
Format settings, CABAC : Yes
Format settings, ReFrames : 10 frames
Codec ID : V_MPEG4/ISO/AVC
Duration : 1h 35mn
Bit rate : 1 750 Kbps
Width : 1 024 pixels
Height : 436 pixels
Display aspect ratio : 2.35:1
Frame rate mode : Constant
Frame rate : 23.976 fps
Color space : YUV
Chroma subsampling : 4:2:0
Bit depth : 8 bits
Scan type : Progressive
Bits/(Pixel*Frame) : 0.163
Stream size : 1.14 GiB (78%)
Title : BDRip by AFM [RuTracker.org]
Writing library : x264 core 148 r2665+53 6629127 t_mod_Custom [8-bit@all X86_64]
Encoding settings : cabac=1 / ref=10 / deblock=1:-3:-3 / analyse=0x3:0x113 / me=umh / subme=11 / psy=1 / fade_compensate=0.00 / psy_rd=1.00:0.00 / mixed_ref=1 / me_range=32 / chroma_me=1 / trellis=2 / 8x8dct=1 / cqm=0 / deadzone=21,11 / fast_pskip=0 / chroma_qp_offset=-2 / threads=6 / lookahead_threads=1 / sliced_threads=0 / nr=0 / decimate=0 / interlaced=0 / bluray_compat=0 / constrained_intra=0 / fgo=0 / bframes=15 / b_pyramid=2 / b_adapt=2 / b_bias=0 / direct=3 / weightb=1 / open_gop=0 / weightp=2 / keyint=250 / keyint_min=23 / scenecut=40 / intra_refresh=0 / rc_lookahead=40 / rc=2pass / mbtree=0 / bitrate=1750 / ratetol=1.0 / qcomp=0.65 / qpmin=0:0:0 / qpmax=69:69:69 / qpstep=4 / cplxblur=20.0 / qblur=0.5 / vbv_maxrate=50000 / vbv_bufsize=62500 / nal_hrd=none / filler=0 / ip_ratio=1.32 / pb_ratio=1.30 / aq=2:0.90 / aq-sensitivity=10.00 / aq-factor=1.00:1.00:1.00 / aq2=0 / aq3=0
Language : Russian
Default : Yes
Forced : No
Audio
ID : 2
Format : AC-3
Format/Info : Audio Coding 3
Mode extension : CM (complete main)
Format settings, Endianness : Big
Codec ID : A_AC3
Duration : 1h 35mn
Bit rate mode : Constant
Bit rate : 448 Kbps
Channel(s) : 6 channels
Channel positions : Front: L C R, Side: L R, LFE
Sampling rate : 48.0 KHz
Compression mode : Lossy
Stream size : 306 MiB (20%)
Title : Dub, AC3 5.1 ~448 kbps
Language : Russian
Default : Yes
Forced : No
Menu
00:00:00.000 : en:Blindness
00:04:25.265 : en:Light
00:09:29.569 : en:Cell Phone
00:15:47.071 : en:FBI
00:20:42.866 : en:Help?
00:24:55.118 : en:Get Me The Number
00:33:18.162 : en:Take The Call
00:39:27.156 : en:What About Me?
00:46:16.398 : en:Anxious
00:49:29.591 : en:It's Paul
00:55:43.340 : en:Unexpected Attack
01:03:48.074 : en:Incoming Message
01:09:30.166 : en:Terminated
01:15:34.029 : en:Losing Hope
01:23:00.475 : en:Show Blood
01:27:18.483 : en:Have To Hurry

x264

x264 [info]: frame I:655 Avg QP:14.45 size: 32104
x264 [info]: frame P:25717 Avg QP:18.23 size: 16969
x264 [info]: frame B:110954 Avg QP:19.21 size: 7162
x264 [info]: consecutive B-frames: 2.8% 2.9% 6.3% 10.3% 10.8% 20.9% 8.1% 6.0% 6.3% 4.0% 3.3% 3.9% 2.8% 3.0% 2.1% 6.5%
x264 [info]: mb I I16..4: 31.8% 52.5% 15.7%
x264 [info]: mb P I16..4: 1.1% 10.2% 1.1% P16..4: 19.7% 16.3% 5.3% 0.0% 0.0% skip:46.4%
x264 [info]: mb B I16..4: 0.1% 1.6% 0.2% B16..8: 18.3% 8.8% 2.0% direct: 3.0% skip:66.0% L0:48.7% L1:43.2% BI: 8.1%
x264 [info]: 8x8 transform intra:80.5% inter:57.6%
x264 [info]: direct mvs spatial:94.7% temporal:5.3%
x264 [info]: coded y,uvDC,uvAC intra: 74.8% 63.0% 31.1% inter: 15.6% 8.9% 2.0%
x264 [info]: i16 v,h,dc,p: 49% 11% 25% 15%
x264 [info]: i8 v,h,dc,ddl,ddr,vr,hd,vl,hu: 8% 7% 18% 9% 12% 11% 12% 10% 13%
x264 [info]: i4 v,h,dc,ddl,ddr,vr,hd,vl,hu: 34% 5% 18% 6% 8% 7% 7% 6% 8%
x264 [info]: i8c dc,h,v,p: 27% 32% 16% 25%
x264 [info]: Weighted P-Frames: Y:98.4% UV:10.9%
x264 [info]: ref P L0: 40.5% 5.8% 19.6% 9.2% 6.6% 5.4% 4.4% 2.8% 2.5% 2.4% 0.7% 0.1%
x264 [info]: ref B L0: 59.4% 15.1% 9.1% 5.0% 3.9% 3.2% 2.7% 1.2% 0.4%
x264 [info]: ref B L1: 88.1% 11.9%
x264 [info]: kb/s:1748.88

Скриншотыс названием

[Профиль] [ЛС]

Создавать темы 12-Июн-2016 07:53 (спустя 3 месяца 19 дней)

Топик был перенесен из форума Фильмы 2011 года в форум Фильмы 2010 года
Russian Mafia
 
Кто просматривает тему:

Форум Тема Автор Размер
Разная литература Ирина Кутовая (сост.) - Вкусный погребок. Домашние заготовки (2015) PDF достали все 13 MB
Фильмы (HD Rips | 720p, 1080p) Как я провёл этим летом (Алексей Попогребский) [2010, Россия, триллер, BDRip 1080p] TorrentFilm 8.23 GB
Фильмы (HD Rips | 720p, 1080p) Как я провёл этим летом (Алексей Попогребский) [2010, Россия, триллер, BDRip 720p] TorrentFilm 4.78 GB
Фильмы (HD Rips | 720p, 1080p) Как я провёл этим летом (Алексей Попогребский) [2010, Россия, триллер, Blu-ray disc 1080i] Sub Eng TorrentFilm 29.48 GB
Фильмы 2014 года Непогребенные кости / Grafir & Bein (2014) WEB-Rip достали все 702 MB
Фильмы 2014 года Непогребенные кости / Grafir og bein (Антон Сигурдссон) [2014, Триллер] DVDRip | L1 BOSS 1.46 GB
Разная литература Осипов Н.П. - Россiйской хозяйственной винокуръ, пивоваръ, медоваръ, водочной мастеръ, квасникъ, уксусникъ и погребщикъ / Российской хозяйственной винокур, пивовар, медовар, водочный мастер, квасник,... Garik014 5 MB
Фильмы 2010 года Погребенный заживо / Buried (Родриго Кортес / Rodrigo Cortés) [2010, Испания, США, Франция , триллер, драма, детектив, BDRip] AVO (Визгунов) TorrentFilm 1.45 GB
Показать сообщения:    

Текущее время: Сегодня 09:09

Часовой пояс: GMT



Вы не можете начинать темы
Вы не можете отвечать на сообщения
Вы не можете редактировать свои сообщения
Вы не можете удалять свои сообщения
Вы не можете голосовать в опросах
Вы не можете прикреплять файлы к сообщениям
Вы не можете скачивать файлы