Погребенный заживо / Buried (Родриго Кортес / Rodrigo Cortés) [2010, США, Франция, Испания, Триллер, Драма, Детектив, BDRip] DUB

 
Автор Сообщение

TorrentFilm ®

Пол:

Стаж: 2 года

Сообщений: 7741



Награды: Нет

Торрент-статистика

Создавать темы 03-Авг-2015 00:06

[Цитировать]

Погребенный заживо
Buried
-Год выпуска: 2010
Страна: США, Франция, Испания
Жанр: Триллер, Драма, Детектив
Продолжительность: 01:35:27
Перевод: Профессиональный (полное дублирование)
Субтитры: нет
Оригинальная аудиодорожка: нет-Режиссер: Родриго Кортес / Rodrigo Cortés-В ролях: Райан Рейнольдс, Хосе Луис Гарсия Перез, Роберт Патерсон, Стивен Тоболовски, Саманта Мэтис, Ивана Миньо, Уорнер Лафлин, Эрик Палладино, Кали Роча, Крис Мартин-Описание: Герой фильма Пол, находящийся в Ираке по контракту, во время засады теряет сознание и спустя время приходит в себя в странном тесном темном месте. Не трудно догадаться, что воспользовавшись зажигалкой, Пол обнаруживает себя похороненным в гробу. Ему предстоит пережить много страшных, психологически тяжелых, физически невозможных мгновений борьбы за собственную жизнь в попытках выбраться из неожиданной ловушки…-Дополнительно: Рип IRONHiDE, Релиз-группа HELLYWOOD. Видео этого рипа использовано в раздаче с авторским переводом здесь.- -Семпл: http://multi-up.com/1061038-Качество видео: BDRip (исходник BD-Remux 1080p)
Формат видео: AVI
Видео: 720x304 (2.37:1), 23.976 fps, XviD build 50 ~1718 kbps avg, 0.33 bit/pixel
Аудио: 48 kHz, AC3 Dolby Digital, 3/2 (L,C,R,l,r) + LFE ch, ~448 kbps-

MediaInfo

General
Complete name : Pogrebennyj.Zazhivo.2010.RUS.BDRip.XviD.AC3.avi
Format : AVI
Format/Info : Audio Video Interleave
File size : 1.45 GiB
Duration : 1h 35mn
Overall bit rate : 2 176 Kbps
Movie name : Pogrebennyj.Zazhivo.2010.RUS.BDRip.XviD.AC3.HELLYWOOD
Director : IRONHiDE
Writing application : VirtualDubMod 1.5.10.2 (build 2540/release)
Video
ID : 0
Format : MPEG-4 Visual
Format profile : Advanced Simple@L5
Format settings, BVOP : 1
Format settings, QPel : No
Format settings, GMC : No warppoints
Format settings, Matrix : Custom
Codec ID : XVID
Codec ID/Hint : XviD
Duration : 1h 35mn
Bit rate : 1 718 Kbps
Width : 720 pixels
Height : 304 pixels
Display aspect ratio : 2.35:1
Frame rate : 23.976 fps
Color space : YUV
Chroma subsampling : 4:2:0
Bit depth : 8 bits
Scan type : Progressive
Compression mode : Lossy
Bits/(Pixel*Frame) : 0.327
Stream size : 1.15 GiB (79%)
Writing library : XviD 1.2.1 (UTC 2008-12-04)
Audio
ID : 1
Format : AC-3
Format/Info : Audio Coding 3
Mode extension : CM (complete main)
Format settings, Endianness : Big
Codec ID : 2000
Duration : 1h 35mn
Bit rate mode : Constant
Bit rate : 448 Kbps
Channel(s) : 6 channels
Channel positions : Front: L C R, Side: L R, LFE
Sampling rate : 48.0 KHz
Compression mode : Lossy
Stream size : 306 MiB (21%)
Alignment : Split accross interleaves
Interleave, duration : 42 ms (1.00 video frame)
Interleave, preload duratio : 500 ms

Скриншоты



[Профиль] [ЛС]

Создавать темы 06-Авг-2015 22:23 (спустя 3 дня)

Топик был перенесен из форума Фильмы до 2014 года в форум Фильмы до 2012 года
sergej644
 

Создавать темы 12-Июн-2016 07:55 (спустя 10 месяцев 9 дней)

Топик был перенесен из форума Фильмы 2011 года в форум Фильмы 2010 года
Russian Mafia
 
Кто просматривает тему:

Форум Тема Автор Размер
Разная литература Ирина Кутовая (сост.) - Вкусный погребок. Домашние заготовки (2015) PDF достали все 13 MB
Фильмы (HD Rips | 720p, 1080p) Как я провёл этим летом (Алексей Попогребский) [2010, Россия, триллер, BDRip 1080p] TorrentFilm 8.23 GB
Фильмы (HD Rips | 720p, 1080p) Как я провёл этим летом (Алексей Попогребский) [2010, Россия, триллер, BDRip 720p] TorrentFilm 4.78 GB
Фильмы (HD Rips | 720p, 1080p) Как я провёл этим летом (Алексей Попогребский) [2010, Россия, триллер, Blu-ray disc 1080i] Sub Eng TorrentFilm 29.48 GB
Фильмы 2014 года Непогребенные кости / Grafir & Bein (2014) WEB-Rip достали все 702 MB
Фильмы 2014 года Непогребенные кости / Grafir og bein (Антон Сигурдссон) [2014, Триллер] DVDRip | L1 BOSS 1.46 GB
Разная литература Осипов Н.П. - Россiйской хозяйственной винокуръ, пивоваръ, медоваръ, водочной мастеръ, квасникъ, уксусникъ и погребщикъ / Российской хозяйственной винокур, пивовар, медовар, водочный мастер, квасник,... Garik014 5 MB
Фильмы 2010 года Погребенный заживо / Buried (Родриго Кортес / Rodrigo Cortés) [2010, Испания, США, Франция , триллер, драма, детектив, BDRip] AVO (Визгунов) TorrentFilm 1.45 GB
Показать сообщения:    

Текущее время: Сегодня 04:31

Часовой пояс: GMT



Вы не можете начинать темы
Вы не можете отвечать на сообщения
Вы не можете редактировать свои сообщения
Вы не можете удалять свои сообщения
Вы не можете голосовать в опросах
Вы не можете прикреплять файлы к сообщениям
Вы не можете скачивать файлы