Погоня / Ticket Out (Даг Лодато / Doug Lodato) [2010, США, Триллер, HDRip] MVO + Original Eng

 
Автор Сообщение

painkiller ®

Стаж: 2 года 3 месяца

Сообщений: 582



Награды: Нет

Торрент-статистика

Создавать темы 16-Авг-2014 14:47

[Цитировать]

Погоня / Ticket Out
Страна: США
Жанр: Триллер
Год выпуска: 2010
Продолжительность: 01:30:00
Перевод: Профессиональный (многоголосый закадровый)
Cубтитры: нет
Оригинальная аудиодорожка: английский
Режиссер: Даг Лодато / Doug Lodato
В ролях: Рэй Лиотта, Колин Форд, Билли Бёрк, Александра Брекенридж, Сиара Бонд, Скотт Майкл Кэмпбелл, Кристофер Б. Дункан, Джудит Бенезра, Майкл Шамус Уайлз, Клиффорд Минкофф
Описание: При разводе супругов суд встает на сторону богатого и влиятельного отца и оставляет двух детей на его попечении. Мать не может смириться с этим и решается на отчаянный шаг — выкрасть детей и бежать. Для поимки беглянки задействуют не только силы полиции, но и частную охрану влиятельного бизнесмена. Казалось бы, шансов у слабой женщины нет никаких, если бы не вмешательство в это дело крепкого парня по имени Джим, который случайно оказывается рядом и помогает ей. Но тот ли он, за кого себя выдает?
Сэмпл: http://multi-up.com/992216
Качество видео: HDRip
Формат видео: AVI
Видео: MPEG4, XviD, 720x304 (2.35), 23.976 fps, 1 660 Kbps (0.316 bit/pixel)
Аудио: AC-3, 48.0 KHz, 2 ch, 192 Kbps, CBR - русский
Аудио 2: AC-3, 48.0 KHz, 6 ch, 448 Kbps, CBR - английский

MediaInfo

Общее
Полное имя : K:\Погоня.avi
Формат : AVI
Формат/Информация : Audio Video Interleave
Размер файла : 1,46 Гбайт
Продолжительность : 1 ч. 30 м.
Общий поток : 2314 Кбит/сек
Название фильма : Погоня / Ticket Out (2010)
Программа кодирования : VirtualDubMod 1.5.10.2 (build 2540/release)
Библиотека кодирования : VirtualDubMod build 2540/release
Правообладатель : miha2154
Видео
Идентификатор : 0
Формат : MPEG-4 Visual
Профиль формата : Advanced Simple@L5
Параметр BVOP формата : 2
Параметр QPel формата : Нет
Параметр GMC формата : Без точки перехода
Параметр матрицы формата : Default (MPEG)
Идентификатор кодека : XVID
Идентификатор кодека/Подсказка : XviD
Продолжительность : 1 ч. 30 м.
Битрейт : 1660 Кбит/сек
Ширина : 720 пикселей
Высота : 304 пикселя
Соотношение сторон : 2,35:1
Частота кадров : 23,976 кадра/сек
Цветовое пространство : YUV
Субдискретизация насыщенности : 4:2:0
Битовая глубина : 8 бит
Тип развёртки : Прогрессивная
Метод сжатия : С потерями
Бит/(Пиксели*Кадры) : 0.316
Размер потока : 1,04 Гбайт (72%)
Библиотека кодирования : XviD 1.1.0 (UTC 2005-11-22)
Аудио #1
Идентификатор : 1
Формат : AC-3
Формат/Информация : Audio Coding 3
Расширение режима : CM (complete main)
Параметр Endianness формата : Big
Идентификатор кодека : 2000
Продолжительность : 1 ч. 30 м.
Вид битрейта : Постоянный
Битрейт : 192 Кбит/сек
Каналы : 2 канала
Расположение каналов : Front: L R
Частота : 48,0 КГц
Битовая глубина : 16 бит
Метод сжатия : С потерями
Размер потока : 124 Мбайт (8%)
Выравнивание : Разделение по промежуткам
Продолжительность промежутка : 42 мс. (1,00 видеокадр)
Время предзагрузки промежутка : 500 мс.
Заголовок : Профессиональный (многоголосый закадровый)
Аудио #2
Идентификатор : 2
Формат : AC-3
Формат/Информация : Audio Coding 3
Расширение режима : CM (complete main)
Параметр Endianness формата : Big
Идентификатор кодека : 2000
Продолжительность : 1 ч. 30 м.
Вид битрейта : Постоянный
Битрейт : 448 Кбит/сек
Каналы : 6 каналов
Расположение каналов : Front: L C R, Side: L R, LFE
Частота : 48,0 КГц
Битовая глубина : 16 бит
Метод сжатия : С потерями
Размер потока : 288 Мбайт (19%)
Выравнивание : Разделение по промежуткам
Продолжительность промежутка : 42 мс. (1,00 видеокадр)
Время предзагрузки промежутка : 500 мс.
Заголовок : Английский

Скриншоты

--
[Профиль] [ЛС]

Создавать темы 06-Авг-2015 23:09 (спустя 11 месяцев 21 день)

Топик был перенесен из форума Фильмы до 2014 года в форум Фильмы до 2012 года
sergej644
 

Создавать темы 12-Июн-2016 07:54 (спустя 1 год 9 месяцев)

Топик был перенесен из форума Фильмы 2011 года в форум Фильмы 2010 года
Russian Mafia
 
Кто просматривает тему:

Форум Тема Автор Размер
Фильмы 2011 года В погоне за счастьем / The Pursuit of Happyness (Габриэле Муччино / Gabriele Muccino) [2006, США, драма, биография, SATRip] [Full Screen] Dub TorrentFilm 1.45 GB
Фильмы (HD Rips | 720p, 1080p) Идальго: Погоня в пустыне / Hidalgo (2004) BDRip 720p | Лицензия sergej644 3.31 GB
Зарубежные мультфильмы Ледниковый Период: Погоня за яйцами / Ice Age: The Great Egg-Scapade (2016) WEB-DL 720p | iTunes Russian Mafia 2.34 GB
Зарубежные мультфильмы Ледниковый Период: Погоня за яйцами / Ice Age: The Great Egg-Scapade (2016) WEB-DLRip | iTunes Russian Mafia 1.36 GB
Зарубежные мультфильмы Ледниковый Период: Погоня за яйцами / Ice Age: The Great Egg-Scapade (Рикардо Кертис) [2016 г., Мультфильм, комедия, WEB-DL 720p] Dub [iTunes] BOSS 2.19 GB
Зарубежные мультфильмы Ледниковый Период: Погоня за яйцами / Ice Age: The Great Egg-Scape (2016) WEB-DLRip достали все 455 MB
Фильмы (HD Rips | 720p, 1080p) Погоня / The Chase (1966) BDRip 1080p | D, P, A Russian Mafia 11.47 GB
Фильмы 2015 года Погоня за красотой / Bad Hair Day (2015) WEB-DLRip | D достали все 1.37 GB
Показать сообщения:    

Текущее время: Сегодня 02:24

Часовой пояс: GMT



Вы не можете начинать темы
Вы не можете отвечать на сообщения
Вы не можете редактировать свои сообщения
Вы не можете удалять свои сообщения
Вы не можете голосовать в опросах
Вы не можете прикреплять файлы к сообщениям
Вы не можете скачивать файлы