Поворот / Burilish (Равшан Р. Норбоев) [2010, Узбекистан, Триллер, драма, SATRip] MVO

 
Автор Сообщение

painkiller ®

Стаж: 2 года 3 месяца

Сообщений: 582



Награды: Нет

Торрент-статистика

Создавать темы 14-Авг-2014 13:03

[Цитировать]

Поворот / Burilish
Страна: Узбекистан
Жанр: Триллер , драма
Год выпуска: 2010
Продолжительность: 01:08:42
Перевод: Профессиональный (многоголосый закадровый)
Cубтитры: нет
Режиссер: Равшан Р. Норбоев
В ролях: Умид Искандаров, Анвар Мухамедов, Рустам Сафаров, Рената Искандарова, Сардор Кориев, Малик Кодиров, Жора Изроилов, Дилмурод Масайдов, Акмаль Соипов
Описание: Четверо молодых парней поздним вечером решают покататься на крутой машине, по пустынной трассе. Между делом, заезжают в магазинчик и набирают пива. Но планы меняются, и друзьям нужно срочно возвращаться в город. На большой скорости они не замечают поворот и сбивают неизвестного пешехода. В страхе парни уезжают с места преступления, рисуя в воображении самые страшные последствия...
Сэмпл: http://multi-up.com/951682
Качество видео: SATRip
Формат видео: AVI
Видео: XviD MPEG-4 , 704x384 (1.83:1), 25 fps , 2103 kbps avg
Аудио: AC3 , 48 kHz , 160.00 kbps avg , 2/0 (L,R) ch

MediaInfo

General
Complete name : C:\Поворот 2010.avi
Format : AVI
Format/Info : Audio Video Interleave
File size : 1.09 GiB
Duration : 1h 8mn
Overall bit rate : 2 273 Kbps
Writing library : VirtualDub build 35390/release
Video
ID : 0
Format : MPEG-4 Visual
Format profile : Advanced Simple@L5
Format settings, BVOP : 2
Format settings, QPel : No
Format settings, GMC : No warppoints
Format settings, Matrix : Default (H.263)
Muxing mode : Packed bitstream
Codec ID : XVID
Codec ID/Hint : XviD
Duration : 1h 8mn
Bit rate : 2 104 Kbps
Width : 704 pixels
Height : 384 pixels
Display aspect ratio : 1.85:1
Frame rate : 25.000 fps
Color space : YUV
Chroma subsampling : 4:2:0
Bit depth : 8 bits
Scan type : Progressive
Compression mode : Lossy
Bits/(Pixel*Frame) : 0.311
Stream size : 1.01 GiB (93%)
Writing library : XviD 64
Audio
ID : 1
Format : AC-3
Format/Info : Audio Coding 3
Mode extension : CM (complete main)
Format settings, Endianness : Big
Codec ID : 2000
Duration : 1h 8mn
Bit rate mode : Constant
Bit rate : 160 Kbps
Channel(s) : 2 channels
Channel positions : Front: L R
Sampling rate : 48.0 KHz
Bit depth : 16 bits
Compression mode : Lossy
Stream size : 78.6 MiB (7%)
Alignment : Aligned on interleaves
Interleave, duration : 40 ms (1.00 video frame)
Interleave, preload duration : 512 ms

Скриншоты

[Профиль] [ЛС]

Создавать темы 06-Авг-2015 23:13 (спустя 11 месяцев 23 дня)

Топик был перенесен из форума Фильмы до 2014 года в форум Фильмы до 2012 года
sergej644
 

Создавать темы 12-Июн-2016 07:54 (спустя 1 год 9 месяцев)

Топик был перенесен из форума Фильмы 2011 года в форум Фильмы 2010 года
Russian Mafia
 
Показать сообщения:    

Текущее время: Сегодня 20:45

Часовой пояс: GMT



Вы не можете начинать темы
Вы не можете отвечать на сообщения
Вы не можете редактировать свои сообщения
Вы не можете удалять свои сообщения
Вы не можете голосовать в опросах
Вы не можете прикреплять файлы к сообщениям
Вы не можете скачивать файлы