Поворот (Вадим Абдрашитов) [1978, драма, экранизация, DVB]

 
Автор Сообщение

reversefile ®

Пол:

Стаж: 4 года 5 месяцев

Сообщений: 842

Откуда: ReverseFile.org



Награды: Нет

Торрент-статистика

Создавать темы 11-Авг-2014 06:20

[Цитировать]

Поворот
Жанр: драма, экранизация
Год выпуска: 1978
Продолжительность: 1:33:39
Режиссёр: Вадим Абдрашитов
В ролях: Олег Янковский, Ирина Купченко, Олег Анофриев, Наталья Величко, Александр Кайдановский, Юрий Назаров, Виктор Проскурин, Анатолий Солоницын, Михаил Дадыко, Олимпиада Калмыкова, Наталья Малявина, Любовь Стриженова, Сергей Полежаев, Алексей Преснецов, Николай Смирнов...
Описание: По мотивам одноимённого романа Вениамина Каверина.
Счастливо завершается круиз молодожёнов по Чёрному морю. Впереди - Москва, интересная научная работа, защита диссертации и уют неизвестной пока семейной жизни. Но трагическая случайность рушит надежды Веденеевых. Виктор обвиняется в преступлении: он сбивает на своих "Жигулях" насмерть старушку. Начинается следствие...
Семпл: http://sendfile.su/995363
Качество видео: DVB
Формат видео: MPEG-PS
Видео: MPEG2 Video 720x576 (4:3) 25.00fps 2975 Kbps (5000 Kbps)
Аудио: Русский MPEG Audio 48000Hz stereo 192Kbps

MediaInfo

Общее
Полное имя : E:\Torrents\Поворот.mpg
Формат : MPEG-PS
Размер файла : 2,11 Гбайт
Продолжительность : 1 ч. 33 м.
Режим общего битрейта : Переменный
Общий поток : 3231 Кбит/сек
Библиотека кодирования : (c) 1998-2011 Womble Multimedia, Inc. / MPEG Video Wizard DVD 5.0.1.100 (03/2011) / Jun 19 2011
Видео
Идентификатор : 224 (0xE0)
Формат : MPEG Video
Версия формата : Version 2
Профиль формата : Main@Main
Параметр BVOP формата : Да
Параметр матрицы формата : Выборочная
Продолжительность : 1 ч. 33 м.
Вид битрейта : Переменный
Битрейт : 2975 Кбит/сек
Максимальный битрейт : 5000 Кбит/сек
Ширина : 720 пикселей
Высота : 576 пикселей
Соотношение сторон : 4:3
Частота кадров : 25,000 кадров/сек
Стандарт вещания : PAL
Цветовое пространство : YUV
Субдискретизация насыщенности : 4:2:0
Битовая глубина : 8 бит
Тип развёртки : Чересстрочная
Порядок развёртки : Верхнее поле первое
Метод сжатия : С потерями
Бит/(Пиксели*Кадры) : 0.287
Размер потока : 1,95 Гбайт (92%)
Библиотека кодирования : (c) 1998-2011 Womble Multimedia, Inc. / MPEG Video Wizard DVD 5.0.1.100 (03/2011) / Jun 19 2011
Аудио
Идентификатор : 192 (0xC0)
Формат : MPEG Audio
Версия формата : Version 1
Профиль формата : Layer 2
Продолжительность : 1 ч. 33 м.
Вид битрейта : Постоянный
Битрейт : 192 Кбит/сек
Каналы : 2 канала
Частота : 48,0 КГц
Метод сжатия : С потерями
Задержка видео : -80 мс.
Размер потока : 129 Мбайт (6%)
Меню

Скриншоты


[Профиль] [ЛС]

Создавать темы 06-Авг-2015 22:04 (спустя 11 месяцев 26 дней)

Топик был перенесен из форума Кино СССР в форум Кино СССР
sergej644
 
Показать сообщения:    

Текущее время: Сегодня 00:21

Часовой пояс: GMT



Вы не можете начинать темы
Вы не можете отвечать на сообщения
Вы не можете редактировать свои сообщения
Вы не можете удалять свои сообщения
Вы не можете голосовать в опросах
Вы не можете прикреплять файлы к сообщениям
Вы не можете скачивать файлы