Повесть о «Неистовом» (1947) SATRip

 
Автор Сообщение

BOSS ®

Пол:

Стаж: 2 года 1 месяц

Сообщений: 3712

Откуда: ODESSA



Награды: 20 (Подробнее)

Mega Seeder 3 (Количество: 1) Top Keeper 2 (Количество: 1) За внесенный вклад в развитие сайта (Количество: 1)
Торрент-статистика

Создавать темы 08-Янв-2016 20:18

[Цитировать]

Страна: СССР
Производство: Мосфильм
Жанр: драма, военный
Год выпуска: 1947
Продолжительность: 01:29:29
Перевод: Не требуется
Cубтитры: нет
Оригинальная аудиодорожка: русский
Режиссер: Борис Бабочкин
В ролях:
Борис Бабочкин, Виктор Миронов, Алексей Алексеев, Чеслав Сушкевич, Дмитрий Дубов, Виктор Проклов, Иван Кузнецов, О. Мерцедин, Александр Баранов, Александр Гречаный, Пётр Савин, Михаил Глузский, Иосиф Ваньков, М. Атаев, Андрей Карасев, Виталий Клиш, Яков Трайнин, В. Сударев, Иван Переверзев, Леонид Кмит, Александр Смирнов, Валериан Казанский, В. Бондарева, Галина Фролова, Е. Феоктистова, Эмилия Кравченко, Михаил Державин (ст.), Боря Бовыкин, Лев Потёмкин...
Описание:
Один из кораблей Северного флота, миноносец "Неистовый", получает задание провести через зону действия немецких подводных лодок в Баренцовом море танкер с горючим, которое ждут на северных авиабазах.- -Источник: DVB
Качество видео: SATRip
Формат видео: AVI
Видео: 640x480 (4:3), 25 fps, XviD ~ 1027 kbps avg, 0.134 bit/pixel
Аудио: 48 kHz, MP3 2.0, 128 kbps

MediaInfo

Общее
Полное имя : Povest.o.Neistovom.1947.SATRip-745_[New-team]_by_AVP_Studio.avi
Формат : AVI
Формат/Информация : Audio Video Interleave
Размер файла : 745 Мбайт
Продолжительность : 1 ч. 29 м.
Общий поток : 1165 Кбит/сек
Программа кодирования : VirtualDubModRus 1.5.10.2 (build 2542/release)
Библиотека кодирования : VirtualDubMod build 2542/release
Видео
Идентификатор : 0
Формат : MPEG-4 Visual
Профиль формата : Advanced Simple@L5
Параметр BVOP формата : 1
Параметр QPel формата : Нет
Параметр GMC формата : Без точки перехода
Параметр матрицы формата : Выборочная
Идентификатор кодека : XVID
Идентификатор кодека/Подсказка : XviD
Продолжительность : 1 ч. 29 м.
Битрейт : 1027 Кбит/сек
Ширина : 640 пикселей
Высота : 480 пикселей
Соотношение сторон : 4:3
Частота кадров : 25,000 кадров/сек
Цветовое пространство : YUV
Субдискретизация насыщенности : 4:2:0
Битовая глубина : 8 бит
Тип развёртки : Прогрессивная
Метод сжатия : С потерями
Бит/(Пиксели*Кадры) : 0.134
Размер потока : 657 Мбайт (88%)
Библиотека кодирования : XviD 73
Аудио
Идентификатор : 1
Формат : MPEG Audio
Версия формата : Version 1
Профиль формата : Layer 3
Идентификатор кодека : 55
Идентификатор кодека/Подсказка : MP3
Продолжительность : 1 ч. 29 м.
Вид битрейта : Постоянный
Битрейт : 128 Кбит/сек
Каналы : 2 канала
Частота : 48,0 КГц
Метод сжатия : С потерями
Размер потока : 81,9 Мбайт (11%)
Выравнивание : Соединение по промежуткам
Продолжительность промежутка : 40 мс. (1,00 видеокадр)
Время предзагрузки промежутка : 504 мс.
Библиотека кодирования : LAME3.99r
Настройки программы : -m s -V 4 -q 2 -lowpass 17 -b 128

Скриншоты

[Профиль] [ЛС]
Кто просматривает тему:

Форум Тема Автор Размер
Фильмы (DVD 5/9) Благословите женщину (Станислав Говорухин) [2003, Россия, драма, мелодрама, киноповесть, DVD5] Sub Rus TorrentFilm 4.36 GB
Отечественная Классика Борис Полевой - Повесть о настоящем человеке (2015) MP3 Swager 660 MB
Кино СССР Два капитана / 6 серии из 6 (Евгений Карелов) [1976, СССР, киноповесть, экранизация, SATRip-AVC] E.S.P. 4.2 GB
Фантастика и фэнтези Джо Аберкромби - Первый Закон 2. Прежде чем их повесят (2016) MP3 Swager 800 MB
Боевики, детективы, триллеры Джон Гришэм - Повестка (2016) MP3 Swager 450 MB
Отечественная Классика Мельников Павел (Печерский Андрей) - Повести и рассказы [Репина Светлана, 2011] Magnat 627 MB
Мировая классика Неизвестный автор - Повесть о прекрасной Отикубо [Лебедева Валерия, 2014] Magnat 972 MB
Фильмы (DVD 5/9) Огни Баку (Александр Зархи, Рза Тахмасиб, Иосиф Хейфиц) [1950, СССР, Киноповесть, DVD5] ~ 2-я цензурированная версия (1968) ~ TorrentFilm 3.21 GB
Показать сообщения:    

Текущее время: Сегодня 02:45

Часовой пояс: GMT



Вы не можете начинать темы
Вы не можете отвечать на сообщения
Вы не можете редактировать свои сообщения
Вы не можете удалять свои сообщения
Вы не можете голосовать в опросах
Вы не можете прикреплять файлы к сообщениям
Вы не можете скачивать файлы